Пункт назначения

-Название: Пункт назначения
Оригинальное название: Final Destination
Год выпуска: 2000
Страна: США, Канада
Жанр: ужасы, фантастика, триллер, детектив
Продолжительность: 01:38:14
Перевод: Дубляж
Субтитры: русские (Полные), английские (Полные)-Режиссер: Джеймс Вонг / James Wong-В ролях: Девон Сава (Alex Browning), Эли Лартер (Clear Rivers), Керр Смит (Carter Horton), Кристен Клоук (Valerie Lewton), Дэниэл Робак (Agent Weine), Роджер Гуэнвёр Смит (Agent Schreck), Чэд Донелла (Tod Waggner), Шонн Уильям Скотт (Billy Hitchcock), Тони Тодд (Bludworth), Аманда Детмер (Terry Chaney), Брендан Фер (George Waggner), Форбс Энгус (Larry Murnau)-Описание:
Алекс летит развлекаться со всем классом в Париж на 10 дней. Отец говорит, что детство кончилось. В аэропорту он узнает, что время вылета совпадает с его днем рождения. Потом, повинуясь плохому предчувствию, Алекс покидает самолет вместе с еще семью людьми. И тут взрывается их самолет...
Но позже оставшиеся в живых пассажиры гибнут один за другим, и Алекс понимает: смерть не обманешь - это только отсрочка...-Рейтинг

imdb.com: 6.80 (152 148)
MPAA: R - Лицам до 17 лет обязательно присутствие взрослого-Автор рипа:Tiberiumsun69
-Качество: BDRip 1080p / 60 FPS
Формат: MKV
Видео кодек: AVC
Аудио кодек:AC3
Видео: AVC, 1920x1080 (16:9), 14000 kbps, 59,940 fps, 0,113 bpp
Аудио №1: русский / AC3 / 5.1 / 48 kHz / 640 kbps / 16 bit |Дубляж|
Аудио №2: английский / AC3 / 5.1 / 48 kHz / 640 kbps / 16 bit
Навигация по главам: есть- -

MI

General
Unique ID : 221342673317707049513251564184892802589 (0xA6850C5A32F99C93A3B241DA4DC3061D)
Complete name : A:1080p 60fpsПункт назначения 1080p 60fpsПункт назначения 1.mkv
Format : Matroska
Format version : Version 4 / Version 2
File size : 10.5 GiB
Duration : 1h 38mn
Overall bit rate : 15.3 Mbps
Movie name : R.G HD-Films by Tiberiumsun69 60fps
Encoded date : UTC 2014-12-01 12:13:07
Writing application : mkvmerge v7.3.0 ('Nouages') 64bit built on Oct 22 2014 18:53:34
Writing library : libebml v1.3.0 + libmatroska v1.4.1
Attachment : Yes
Video
ID : 1
Format : AVC
Format/Info : Advanced Video Codec
Format profile : High@L4.1
Format settings, CABAC : Yes
Format settings, ReFrames : 4 frames
Codec ID : V_MPEG4/ISO/AVC
Duration : 1h 38mn
Bit rate : 14.0 Mbps
Width : 1 920 pixels
Height : 1 080 pixels
Display aspect ratio : 16:9
Frame rate : 59.940 fps
Color space : YUV
Chroma subsampling : 4:2:0
Bit depth : 8 bits
Scan type : Progressive
Bits/(Pixel*Frame) : 0.113
Stream size : 9.39 GiB (90%)
Title : R.G HD-Films by Tiberiumsun69 60fps
Writing library : x264 core 142 r2491 24e4fed
Encoding settings : cabac=1 / ref=4 / deblock=1:-1:-1 / analyse=0x3:0 / me=umh / subme=10 / psy=1 / psy_rd=1.00:0.00 / mixed_ref=1 / me_range=32 / chroma_me=0 / trellis=2 / 8x8dct=1 / cqm=0 / deadzone=21,11 / fast_pskip=1 / chroma_qp_offset=-2 / threads=12 / lookahead_threads=1 / sliced_threads=0 / nr=0 / decimate=1 / interlaced=0 / bluray_compat=0 / constrained_intra=0 / bframes=5 / b_pyramid=2 / b_adapt=2 / b_bias=0 / direct=1 / weightb=1 / open_gop=0 / weightp=2 / keyint=250 / keyint_min=59 / scenecut=40 / intra_refresh=0 / rc=2pass / mbtree=0 / bitrate=14000 / ratetol=1.0 / qcomp=0.80 / qpmin=0 / qpmax=69 / qpstep=4 / cplxblur=20.0 / qblur=0.5 / ip_ratio=1.40 / pb_ratio=1.30 / aq=1:1.00
Language : English
Default : Yes
Forced : No
Audio #1
ID : 2
Format : AC-3
Format/Info : Audio Coding 3
Mode extension : CM (complete main)
Codec ID : A_AC3
Duration : 1h 38mn
Bit rate mode : Constant
Bit rate : 640 Kbps
Channel(s) : 6 channels
Channel positions : Front: L C R, Side: L R, LFE
Sampling rate : 48.0 KHz
Bit depth : 16 bits
Compression mode : Lossy
Stream size : 450 MiB (4%)
Title : Дубляж
Language : Russian
Default : Yes
Forced : No
Audio #2
ID : 3
Format : AC-3
Format/Info : Audio Coding 3
Mode extension : CM (complete main)
Codec ID : A_AC3
Duration : 1h 38mn
Bit rate mode : Constant
Bit rate : 640 Kbps
Channel(s) : 6 channels
Channel positions : Front: L C R, Side: L R, LFE
Sampling rate : 48.0 KHz
Bit depth : 16 bits
Compression mode : Lossy
Stream size : 450 MiB (4%)
Title : Оригинал
Language : English
Default : No
Forced : No
Text #1
ID : 4
Format : UTF-8
Codec ID : S_TEXT/UTF8
Codec ID/Info : UTF-8 Plain Text
Title : Полные
Language : Russian
Default : No
Forced : No
Text #2
ID : 5
Format : UTF-8
Codec ID : S_TEXT/UTF8
Codec ID/Info : UTF-8 Plain Text
Title : Полные
Language : English
Default : No
Forced : No
Menu
00:00:00.000 : :Chapter 1
00:03:16.016 : :Chapter 2
00:10:02.964 : :Chapter 3
00:15:56.817 : :Chapter 4
00:19:56.223 : :Chapter 5
00:27:08.280 : :Chapter 6
00:31:57.694 : :Chapter 7
00:39:07.248 : :Chapter 8
00:42:15.686 : :Chapter 9
00:46:13.090 : :Chapter 10
00:49:44.051 : :Chapter 11
00:51:54.056 : :Chapter 12
01:02:21.975 : :Chapter 13
01:06:57.500 : :Chapter 14
01:14:36.083 : :Chapter 15
01:17:53.364 : :Chapter 16
01:20:32.231 : :Chapter 17
01:27:59.594 : :Chapter 18
01:32:37.539 : :Chapter 19

Скриншоты

Пункт назначения 2

-Название: Пункт назначения 2
Оригинальное название: Final Destination 2
Год выпуска: 2002
Страна: США, Канада
Жанр: ужасы, триллер
Продолжительность: 01:30:24
Перевод: Дубляж
Субтитры: русские (Полные), английские (Полные)-Режиссер: Дэвид Р. Эллис / David R. Ellis-В ролях: Эли Лартер (Clear Rivers), А.Дж. Кук (Kimberly Corman), Майкл Лэндис (Thomas Burke), Дэвид Петкау (Evan Lewis), Джеймс Кирк (Tim Carpenter), Линда Бойд (Nora Carpenter), Киган Коннор Трейси (Kat), Джонатан Черри (Rory), Терренс «Т.К.» Карсон (Eugene Dix), Жустина Мачадо (Isabella Hudson), Тони Тодд (Mr. Bludworth), Сара Картер (Shaina)-Описание:
Решив провести уикэнд с друзьями подальше от дома, Кимберли Корман становится невольным свидетелем жуткой автокатастрофы! На скоростной магистрали грузовик теряет управление, а вместе с ним и груз, что приводит к серии столкновений автомобилей и множеству жертв, среди которых она сама. Секунду спустя Кимберли снова чувствует биение своего сердца: она жива и по-прежнему за рулем машины. Видение? А может быть, предупреждение?
Однако теперь и Кимберли, и водители, чьи машины не смогли выехать из-за нее к своей смерти, обречены - старуха с косой отказывается вычеркивать их из своего списка...-Рейтинг

imdb.com: 6.20 (102 922)
MPAA: R - Лицам до 17 лет обязательно присутствие взрослого-Автор рипа:Tiberiumsun69
-Качество: BDRip 1080p / 60 FPS
Формат: MKV
Видео кодек: AVC
Аудио кодек:AC3
Видео: AVC, 1920x1080 (16:9), 14000 kbps, 59,940 fps, 0,113 bpp
Аудио №1: русский / AC3 / 5.1 / 48 kHz / 640 kbps / 16 bit |Дубляж|
Аудио №2: английский / AC3 / 5.1 / 48 kHz / 640 kbps / 16 bit
Навигация по главам: есть- -

MI

General
Unique ID : 232624436959587996003249917170433048762 (0xAF01D63EA9DB2B56B5FDA727069AC0BA)
Complete name : A:1080p 60fpsПункт назначения 1080p 60fpsПункт назначения 2.mkv
Format : Matroska
Format version : Version 4 / Version 2
File size : 9.65 GiB
Duration : 1h 30mn
Overall bit rate : 15.3 Mbps
Movie name : R.G HD-Films by Tiberiumsun69 60fps
Encoded date : UTC 2014-12-01 12:25:17
Writing application : mkvmerge v7.3.0 ('Nouages') 64bit built on Oct 22 2014 18:53:34
Writing library : libebml v1.3.0 + libmatroska v1.4.1
Attachment : Yes
Video
ID : 1
Format : AVC
Format/Info : Advanced Video Codec
Format profile : High@L4.1
Format settings, CABAC : Yes
Format settings, ReFrames : 4 frames
Codec ID : V_MPEG4/ISO/AVC
Duration : 1h 30mn
Bit rate : 14.0 Mbps
Width : 1 920 pixels
Height : 1 080 pixels
Display aspect ratio : 16:9
Frame rate : 59.940 fps
Color space : YUV
Chroma subsampling : 4:2:0
Bit depth : 8 bits
Scan type : Progressive
Bits/(Pixel*Frame) : 0.113
Stream size : 8.65 GiB (90%)
Title : R.G HD-Films by Tiberiumsun69 60fps
Writing library : x264 core 142 r2491 24e4fed
Encoding settings : cabac=1 / ref=4 / deblock=1:-1:-1 / analyse=0x3:0 / me=umh / subme=10 / psy=1 / psy_rd=1.00:0.00 / mixed_ref=1 / me_range=32 / chroma_me=0 / trellis=2 / 8x8dct=1 / cqm=0 / deadzone=21,11 / fast_pskip=1 / chroma_qp_offset=-2 / threads=12 / lookahead_threads=1 / sliced_threads=0 / nr=0 / decimate=1 / interlaced=0 / bluray_compat=0 / constrained_intra=0 / bframes=5 / b_pyramid=2 / b_adapt=2 / b_bias=0 / direct=1 / weightb=1 / open_gop=0 / weightp=2 / keyint=250 / keyint_min=59 / scenecut=40 / intra_refresh=0 / rc=2pass / mbtree=0 / bitrate=14000 / ratetol=1.0 / qcomp=0.80 / qpmin=0 / qpmax=69 / qpstep=4 / cplxblur=20.0 / qblur=0.5 / ip_ratio=1.40 / pb_ratio=1.30 / aq=1:1.00
Language : English
Default : Yes
Forced : No
Audio #1
ID : 2
Format : AC-3
Format/Info : Audio Coding 3
Mode extension : CM (complete main)
Codec ID : A_AC3
Duration : 1h 30mn
Bit rate mode : Constant
Bit rate : 640 Kbps
Channel(s) : 6 channels
Channel positions : Front: L C R, Side: L R, LFE
Sampling rate : 48.0 KHz
Bit depth : 16 bits
Compression mode : Lossy
Stream size : 414 MiB (4%)
Title : Дубляж
Language : Russian
Default : Yes
Forced : No
Audio #2
ID : 3
Format : AC-3
Format/Info : Audio Coding 3
Mode extension : CM (complete main)
Codec ID : A_AC3
Duration : 1h 30mn
Bit rate mode : Constant
Bit rate : 640 Kbps
Channel(s) : 6 channels
Channel positions : Front: L C R, Side: L R, LFE
Sampling rate : 48.0 KHz
Bit depth : 16 bits
Compression mode : Lossy
Stream size : 414 MiB (4%)
Title : Оригинал
Language : English
Default : No
Forced : No
Text #1
ID : 4
Format : UTF-8
Codec ID : S_TEXT/UTF8
Codec ID/Info : UTF-8 Plain Text
Title : Полные
Language : Russian
Default : No
Forced : No
Text #2
ID : 5
Format : UTF-8
Codec ID : S_TEXT/UTF8
Codec ID/Info : UTF-8 Plain Text
Title : Полные
Language : English
Default : No
Forced : No
Menu
00:00:00.000 : :Chapter 1
00:05:01.288 : :Chapter 2
00:16:52.415 : :Chapter 3
00:21:12.091 : :Chapter 4
00:30:04.790 : :Chapter 5
00:38:59.949 : :Chapter 6
00:45:05.815 : :Chapter 7
00:51:09.595 : :Chapter 8
00:56:29.998 : :Chapter 9
01:01:00.852 : :Chapter 10
01:08:27.715 : :Chapter 11
01:13:07.995 : :Chapter 12
01:19:22.953 : :Chapter 13
01:23:05.384 : :Chapter 14
01:25:30.529 : :Chapter 15
01:30:24.155 : :Chapter 16

Скриншоты

Пункт назначения 3

-Название: Пункт назначения 3
Оригинальное название: Final Destination 3
Год выпуска: 2006
Страна: Германия, США, Канада
Жанр: ужасы, триллер
Продолжительность: 01:33:03
Перевод: Дубляж
Субтитры: русские (Полные), английские (Полные)-Режиссер: Джеймс Вонг / James Wong-В ролях: Мэри Элизабет Уинстэд (Wendy Christensen), Райан Мерриман (Kevin Fischer), Крис Лемке (Ian McKinley), Алекс Джонсон (Erin), Сэм Истон (Frankie Cheeks), Джесси Мосс (Jason Wise), Джина Холден (Carrie Dreyer), Тексас Бэттл (Lewis Romero), Челан Симмонс (Ashley Freund), Кристал Лоу (Ashlyn Halperin), Аманда Крю (Julie Christensen), Мэгги Ма (Perry)-Описание:
Главная героиня фильма - старшеклассница Венди Кристенсен, у которой однажды возникло предчувствие, что она и ее друзья станут жертвами несчастного случая, который произойдет на «американских горках».
Когда же самые страшные опасения Венди подтверждаются, то те, кто сумел все-таки обмануть смерть и выжить, оказываются вынужденными расплачиваться за то, что изменили свою судьбу...-Рейтинг

imdb.com: 5.80 (85 834)
MPAA: R - Лицам до 17 лет обязательно присутствие взрослого-Автор рипа:Tiberiumsun69
-Качество: BDRip 1080p / 60 FPS
Формат: MKV
Видео кодек: AVC
Аудио кодек:AC3
Видео: AVC, 1920x816 (2.35:1), 14000 kbps, 59,940 fps, 0,149 bpp
Аудио №1: русский / AC3 / 5.1 / 48 kHz / 640 kbps / 16 bit |Дубляж|
Аудио №2: английский / AC3 / 5.1 / 48 kHz / 640 kbps / 16 bit
Навигация по главам: есть- -

MI

General
Unique ID : 227354319671819450753316093421838465291 (0xAB0AD966C1687BB3801BFB5379E8F90B)
Complete name : A:1080p 60fpsПункт назначения 1080p 60fpsПункт назначения 3.mkv
Format : Matroska
Format version : Version 4 / Version 2
File size : 9.92 GiB
Duration : 1h 33mn
Overall bit rate : 15.3 Mbps
Movie name : R.G HD-Films by Tiberiumsun69 60fps
Encoded date : UTC 2014-12-01 13:24:37
Writing application : mkvmerge v7.3.0 ('Nouages') 64bit built on Oct 22 2014 18:53:34
Writing library : libebml v1.3.0 + libmatroska v1.4.1
Attachment : Yes
Video
ID : 1
Format : AVC
Format/Info : Advanced Video Codec
Format profile : High@L4.1
Format settings, CABAC : Yes
Format settings, ReFrames : 4 frames
Codec ID : V_MPEG4/ISO/AVC
Duration : 1h 33mn
Bit rate : 14.0 Mbps
Width : 1 920 pixels
Height : 816 pixels
Display aspect ratio : 2.35:1
Frame rate : 59.940 fps
Color space : YUV
Chroma subsampling : 4:2:0
Bit depth : 8 bits
Scan type : Progressive
Bits/(Pixel*Frame) : 0.149
Stream size : 8.89 GiB (90%)
Title : R.G HD-Films by Tiberiumsun69 60fps
Writing library : x264 core 142 r2491 24e4fed
Encoding settings : cabac=1 / ref=4 / deblock=1:-1:-1 / analyse=0x3:0 / me=umh / subme=10 / psy=1 / psy_rd=1.00:0.00 / mixed_ref=1 / me_range=32 / chroma_me=0 / trellis=2 / 8x8dct=1 / cqm=0 / deadzone=21,11 / fast_pskip=1 / chroma_qp_offset=-2 / threads=12 / lookahead_threads=1 / sliced_threads=0 / nr=0 / decimate=1 / interlaced=0 / bluray_compat=0 / constrained_intra=0 / bframes=5 / b_pyramid=2 / b_adapt=2 / b_bias=0 / direct=1 / weightb=1 / open_gop=0 / weightp=2 / keyint=250 / keyint_min=59 / scenecut=40 / intra_refresh=0 / rc=2pass / mbtree=0 / bitrate=14000 / ratetol=1.0 / qcomp=0.80 / qpmin=0 / qpmax=69 / qpstep=4 / cplxblur=20.0 / qblur=0.5 / ip_ratio=1.40 / pb_ratio=1.30 / aq=1:1.00
Language : English
Default : Yes
Forced : No
Audio #1
ID : 2
Format : AC-3
Format/Info : Audio Coding 3
Mode extension : CM (complete main)
Codec ID : A_AC3
Duration : 1h 33mn
Bit rate mode : Constant
Bit rate : 640 Kbps
Channel(s) : 6 channels
Channel positions : Front: L C R, Side: L R, LFE
Sampling rate : 48.0 KHz
Bit depth : 16 bits
Compression mode : Lossy
Stream size : 426 MiB (4%)
Title : Дубляж
Language : Russian
Default : Yes
Forced : No
Audio #2
ID : 3
Format : AC-3
Format/Info : Audio Coding 3
Mode extension : CM (complete main)
Codec ID : A_AC3
Duration : 1h 33mn
Bit rate mode : Constant
Bit rate : 640 Kbps
Channel(s) : 6 channels
Channel positions : Front: L C R, Side: L R, LFE
Sampling rate : 48.0 KHz
Bit depth : 16 bits
Compression mode : Lossy
Stream size : 426 MiB (4%)
Title : Оригинал
Language : English
Default : No
Forced : No
Text #1
ID : 4
Format : UTF-8
Codec ID : S_TEXT/UTF8
Codec ID/Info : UTF-8 Plain Text
Title : Полные
Language : Russian
Default : No
Forced : No
Text #2
ID : 5
Format : UTF-8
Codec ID : S_TEXT/UTF8
Codec ID/Info : UTF-8 Plain Text
Title : Полные
Language : English
Default : No
Forced : No
Menu
00:00:00.000 : :Chapter 1
00:02:48.572 : :Chapter 2
00:04:15.867 : :Chapter 3
00:09:35.687 : :Chapter 4
00:14:46.706 : :Chapter 5
00:21:40.286 : :Chapter 6
00:26:35.414 : :Chapter 7
00:38:24.122 : :Chapter 8
00:44:56.680 : :Chapter 9
00:49:58.983 : :Chapter 10
00:52:46.775 : :Chapter 11
00:55:55.339 : :Chapter 12
01:04:04.452 : :Chapter 13
01:06:26.177 : :Chapter 14
01:11:29.981 : :Chapter 15
01:18:07.294 : :Chapter 16
01:20:11.001 : :Chapter 17
01:27:21.848 : :Chapter 18
01:33:03.648 : :Chapter 19

Скриншоты

Пункт назначения 4

-Название: Пункт назначения 4
Оригинальное название: The Final Destination
Год выпуска: 2009
Страна: США
Жанр: ужасы, триллер
Продолжительность: 01:22:02
Перевод: Дубляж
Субтитры: русские (Форсированные), русские (Полные), английские (Полные)-Режиссер: Дэвид Р. Эллис / David R. Ellis-В ролях: Бобби Кампо (Nick), Шантель Ван Сантен (Lori), Ник Зано (Hunt), Хейли Уэбб (Janet), Майкелти Уильямсон (George), Криста Аллен (MILF / Samantha), Эндрю Фисцелла (Mechanic), Джастин Уэлборн (Racist), Стефани Онор (Mechanic's Girlfriend), Лара Грайс (Racist's Wife), Джексон Уолкер (Cowboy), Фил Остин (MILF's Husband)-Описание:
История на этот раз вращается вокруг Ника О`Бэннона, к молодому человеку приходит видение - на автогонках произойдет ужасная трагедия, жертвами которой станут его друзья и он сам. Как и прежде группе счастливчиков, благодаря Нику, удается выжить, но смерть вовсе не спешит вычеркивать их из своего списка.-Рейтинг

imdb.com: 5.10 (62 164)
MPAA: R - Лицам до 17 лет обязательно присутствие взрослого-Автор рипа:Tiberiumsun69
-Качество: BDRip 1080p / 60 FPS
Формат: MKV
Видео кодек: AVC
Аудио кодек:AC3
Видео: AVC, 1920x800 (2.40:1), 14000 kbps, 59,940 fps, 0,152 bpp
Аудио №1: русский / AC3 / 5.1 / 48 kHz / 640 kbps / 16 bit |Дубляж|
Аудио №2: английский / AC3 / 5.1 / 48 kHz / 640 kbps / 16 bit
Навигация по главам: есть- -

MI

General
Unique ID : 175632212161733181596650869595028735784 (0x8421889DF331C52287EA7EEBBFBA4728)
Complete name : A:1080p 60fpsПункт назначения 1080p 60fpsПункт назначения 4.mkv
Format : Matroska
Format version : Version 4 / Version 2
File size : 8.75 GiB
Duration : 1h 22mn
Overall bit rate : 15.3 Mbps
Movie name : R.G HD-Films by Tiberiumsun69 60fps
Encoded date : UTC 2014-12-01 13:36:18
Writing application : mkvmerge v7.3.0 ('Nouages') 64bit built on Oct 22 2014 18:53:34
Writing library : libebml v1.3.0 + libmatroska v1.4.1
Attachment : Yes
Video
ID : 1
Format : AVC
Format/Info : Advanced Video Codec
Format profile : High@L4.1
Format settings, CABAC : Yes
Format settings, ReFrames : 4 frames
Codec ID : V_MPEG4/ISO/AVC
Duration : 1h 22mn
Bit rate : 14.0 Mbps
Width : 1 920 pixels
Height : 800 pixels
Display aspect ratio : 2.40:1
Frame rate : 59.940 fps
Color space : YUV
Chroma subsampling : 4:2:0
Bit depth : 8 bits
Scan type : Progressive
Bits/(Pixel*Frame) : 0.152
Stream size : 7.84 GiB (90%)
Title : R.G HD-Films by Tiberiumsun69 60fps
Writing library : x264 core 142 r2491 24e4fed
Encoding settings : cabac=1 / ref=4 / deblock=1:-1:-1 / analyse=0x3:0 / me=umh / subme=10 / psy=1 / psy_rd=1.00:0.00 / mixed_ref=1 / me_range=32 / chroma_me=0 / trellis=2 / 8x8dct=1 / cqm=0 / deadzone=21,11 / fast_pskip=1 / chroma_qp_offset=-2 / threads=12 / lookahead_threads=1 / sliced_threads=0 / nr=0 / decimate=1 / interlaced=0 / bluray_compat=0 / constrained_intra=0 / bframes=5 / b_pyramid=2 / b_adapt=2 / b_bias=0 / direct=1 / weightb=1 / open_gop=0 / weightp=2 / keyint=250 / keyint_min=59 / scenecut=40 / intra_refresh=0 / rc=2pass / mbtree=0 / bitrate=14000 / ratetol=1.0 / qcomp=0.80 / qpmin=0 / qpmax=69 / qpstep=4 / cplxblur=20.0 / qblur=0.5 / ip_ratio=1.40 / pb_ratio=1.30 / aq=1:1.00
Language : English
Default : Yes
Forced : No
Audio #1
ID : 2
Format : AC-3
Format/Info : Audio Coding 3
Mode extension : CM (complete main)
Codec ID : A_AC3
Duration : 1h 22mn
Bit rate mode : Constant
Bit rate : 640 Kbps
Channel(s) : 6 channels
Channel positions : Front: L C R, Side: L R, LFE
Sampling rate : 48.0 KHz
Bit depth : 16 bits
Compression mode : Lossy
Stream size : 376 MiB (4%)
Title : Дубляж
Language : Russian
Default : Yes
Forced : No
Audio #2
ID : 3
Format : AC-3
Format/Info : Audio Coding 3
Mode extension : CM (complete main)
Codec ID : A_AC3
Duration : 1h 22mn
Bit rate mode : Constant
Bit rate : 640 Kbps
Channel(s) : 6 channels
Channel positions : Front: L C R, Side: L R, LFE
Sampling rate : 48.0 KHz
Bit depth : 16 bits
Compression mode : Lossy
Stream size : 376 MiB (4%)
Title : Оригинал
Language : English
Default : No
Forced : No
Text #1
ID : 4
Format : UTF-8
Codec ID : S_TEXT/UTF8
Codec ID/Info : UTF-8 Plain Text
Title : Форсированные
Language : Russian
Default : Yes
Forced : No
Text #2
ID : 5
Format : UTF-8
Codec ID : S_TEXT/UTF8
Codec ID/Info : UTF-8 Plain Text
Title : Полные
Language : Russian
Default : No
Forced : No
Text #3
ID : 6
Format : UTF-8
Codec ID : S_TEXT/UTF8
Codec ID/Info : UTF-8 Plain Text
Title : Полные
Language : English
Default : No
Forced : No
Menu
00:00:00.000 : :Chapter 1
00:04:00.323 : :Chapter 2
00:06:42.193 : :Chapter 3
00:11:29.230 : :Chapter 4
00:12:57.651 : :Chapter 5
00:17:40.350 : :Chapter 6
00:21:32.833 : :Chapter 7
00:23:36.123 : :Chapter 8
00:27:00.493 : :Chapter 9
00:29:12.417 : :Chapter 10
00:32:49.175 : :Chapter 11
00:35:44.684 : :Chapter 12
00:39:15.019 : :Chapter 13
00:43:37.239 : :Chapter 14
00:47:01.068 : :Chapter 15
00:50:05.085 : :Chapter 16
00:55:22.485 : :Chapter 17
00:59:46.291 : :Chapter 18
01:01:22.887 : :Chapter 19
01:05:41.687 : :Chapter 20
01:08:18.135 : :Chapter 21
01:09:55.983 : :Chapter 22
01:13:34.118 : :Chapter 23
01:16:35.048 : :Chapter 24
01:21:46.651 : :Chapter 25

Пункт назначения 5

-Название: Пункт назначения 5
Оригинальное название: Final Destination 5
Год выпуска: 2011
Страна: США, Канада
Жанр: ужасы, триллер
Продолжительность: 01:32:03
Перевод: Дубляж
Субтитры: русские (Полные), английские (Полные)-Режиссер: Стивен Куэйл / Steven Quale-В ролях: Николас Д’Агосто (Sam Lawton), Эмма Белл (Molly Harper), Майлз Фишер (Peter Friedkin), Эллен Ро (Candice Hooper), Жаклин МакИннес Вуд (Olivia Castle), П.Дж. Бирн (Isaac Palmer), Арлен Эскарпета (Nathan), Дэвид Кокнер (Dennis), Кортни Б. Вэнс (Agent Jim Block), Тони Тодд (William Bludworth), Брент Стейт (Roy), Роман Подхора (John)-Описание:
У Сэма Лоутона происходит жуткое видение: подвесной мост, на котором он находится со своими друзьями, рушится, и многие люди, включая его самого, погибают. Сэм начинает паниковать и уговаривает своих друзей и ещё нескольких «счастливчиков» уйти с моста. И как раз вовремя: как и предвидел Сэм, мост рушится на их глазах и множество людей погибает. Однако Сэм и его девушка Молли понимают, что смерть дала им лишь отсрочку, так как выжившие начинают погибать один за другим. Он должен понять, как обманув смерть однажды, обмануть её ещё раз, прежде чем настанет его очередь.-Рейтинг

imdb.com: 5.90 (70 706)
MPAA: R - Лицам до 17 лет обязательно присутствие взрослого-Автор рипа:Tiberiumsun69
-Качество: BDRip 1080p / 60 FPS
Формат: MKV
Видео кодек: AVC
Аудио кодек:AC3
Видео: AVC, 1920x800 (2.40:1), 14000 kbps, 59,940 fps, 0,152 bpp
Аудио №1: русский / AC3 / 5.1 / 48 kHz / 640 kbps / 16 bit |Дубляж|
Аудио №2: английский / AC3 / 5.1 / 48 kHz / 640 kbps / 16 bit
Навигация по главам: есть- -

MI

General
Unique ID : 209496980222142777799416686695836669931 (0x9D9BA69758819635A9C3EB6D3AB5D7EB)
Complete name : A:1080p 60fpsПункт назначения 1080p 60fpsПункт назначения 5.mkv
Format : Matroska
Format version : Version 4 / Version 2
File size : 9.83 GiB
Duration : 1h 32mn
Overall bit rate : 15.3 Mbps
Movie name : R.G HD-Films by Tiberiumsun69 60fps
Encoded date : UTC 2014-12-01 13:46:12
Writing application : mkvmerge v7.3.0 ('Nouages') 64bit built on Oct 22 2014 18:53:34
Writing library : libebml v1.3.0 + libmatroska v1.4.1
Attachment : Yes
Video
ID : 1
Format : AVC
Format/Info : Advanced Video Codec
Format profile : High@L4.1
Format settings, CABAC : Yes
Format settings, ReFrames : 4 frames
Codec ID : V_MPEG4/ISO/AVC
Duration : 1h 32mn
Bit rate : 14.0 Mbps
Width : 1 920 pixels
Height : 800 pixels
Display aspect ratio : 2.40:1
Frame rate : 59.940 fps
Color space : YUV
Chroma subsampling : 4:2:0
Bit depth : 8 bits
Scan type : Progressive
Bits/(Pixel*Frame) : 0.152
Stream size : 8.81 GiB (90%)
Title : R.G HD-Films by Tiberiumsun69 60fps
Writing library : x264 core 142 r2491 24e4fed
Encoding settings : cabac=1 / ref=4 / deblock=1:-1:-1 / analyse=0x3:0 / me=umh / subme=10 / psy=1 / psy_rd=1.00:0.00 / mixed_ref=1 / me_range=32 / chroma_me=0 / trellis=2 / 8x8dct=1 / cqm=0 / deadzone=21,11 / fast_pskip=1 / chroma_qp_offset=-2 / threads=12 / lookahead_threads=1 / sliced_threads=0 / nr=0 / decimate=1 / interlaced=0 / bluray_compat=0 / constrained_intra=0 / bframes=5 / b_pyramid=2 / b_adapt=2 / b_bias=0 / direct=1 / weightb=1 / open_gop=0 / weightp=2 / keyint=250 / keyint_min=59 / scenecut=40 / intra_refresh=0 / rc=2pass / mbtree=0 / bitrate=14000 / ratetol=1.0 / qcomp=0.80 / qpmin=0 / qpmax=69 / qpstep=4 / cplxblur=20.0 / qblur=0.5 / ip_ratio=1.40 / pb_ratio=1.30 / aq=1:1.00
Language : English
Default : Yes
Forced : No
Audio #1
ID : 2
Format : AC-3
Format/Info : Audio Coding 3
Mode extension : CM (complete main)
Codec ID : A_AC3
Duration : 1h 32mn
Bit rate mode : Constant
Bit rate : 640 Kbps
Channel(s) : 6 channels
Channel positions : Front: L C R, Side: L R, LFE
Sampling rate : 48.0 KHz
Bit depth : 16 bits
Compression mode : Lossy
Stream size : 421 MiB (4%)
Title : Дубляж
Language : Russian
Default : Yes
Forced : No
Audio #2
ID : 3
Format : AC-3
Format/Info : Audio Coding 3
Mode extension : CM (complete main)
Codec ID : A_AC3
Duration : 1h 32mn
Bit rate mode : Constant
Bit rate : 640 Kbps
Channel(s) : 6 channels
Channel positions : Front: L C R, Side: L R, LFE
Sampling rate : 48.0 KHz
Bit depth : 16 bits
Compression mode : Lossy
Stream size : 421 MiB (4%)
Title : Оригинал
Language : English
Default : No
Forced : No
Text #1
ID : 4
Format : UTF-8
Codec ID : S_TEXT/UTF8
Codec ID/Info : UTF-8 Plain Text
Title : Полные
Language : Russian
Default : No
Forced : No
Text #2
ID : 5
Format : UTF-8
Codec ID : S_TEXT/UTF8
Codec ID/Info : UTF-8 Plain Text
Title : Полные
Language : English
Default : No
Forced : No
Menu
00:00:00.000 : :Chapter 1
00:10:04.340 : :Chapter 2
00:20:35.763 : :Chapter 3
00:30:49.543 : :Chapter 4
00:41:09.996 : :Chapter 5
00:51:32.076 : :Chapter 6
01:01:08.777 : :Chapter 7
01:09:15.847 : :Chapter 8
01:22:48.575 : :Chapter 9
01:26:36.303 : :Chapter 10
01:32:02.629 : :Chapter 11

Скриншоты

Просьба к переливающим на другие сайты, в оформлении указывайте пожалуйста авторство рипа - Tiberiumsun69

[Цитировать]
mimok

Димон,ну почему ты не делаешь 720р? точно скачал бы этот наборчик

[Цитировать]
Гость

mimok,
Ну воспринимай это как возможность отличится перед всеми кто заинтересован нашими работами. :ad:
Итак уже 1080p и 1080p в 3d делаю.Да еще и в таком количестве. :aa:

[Цитировать]
mimok

да думал замутить,но как то не решиться.

[Цитировать]
Kryl

Убивает рейтинг MPAA: R - Лицам до 17 лет обязательно присутствие взрослого
В 14 уже хель знает чем детвора занимается , а тут взрослый требуется .... :ag:

[Цитировать]
Владимир 1965

Ура Ура спасибо

[Цитировать]
alex1398

Скачал весь набор.Перекинул на внешний ж/д.Подключил (как всегда) к телеку. 3.4.5 показывает на "ура" , 1.2 - "неподдерживаемое разрешение". Вопрос : можно ли это исправить , и если "да" , то как ?

[Цитировать]
Kryl

4012Скачал весь набор.Перекинул на внешний ж/д.Подключил (как всегда) к телеку. 3.4.5 показывает на "ура" , 1.2 - "неподдерживаемое разрешение". Вопрос : можно ли это исправить , и если "да" , то как ?
в 1 и 2 разрешение 1920x1080
в 3,4,5 разрешение 1920x800
старые ящики не хотят читать 1920x1080 , так что исправить нельзя , если только в HD перегонять ..

[Цитировать]
zizu

Когда-то на старом ящике смотрел все части, а здесь 1080p. Скачал и рад, просто нет слов, респект. Да

[Цитировать]
ENIGMA

Огромное Спасибо! Овации
 
Показать сообщения:    

Текущее время: 30-Май 15:56

Часовой пояс: UTC + 3


Вы не можете начинать темы
Вы не можете отвечать на сообщения
Вы не можете редактировать свои сообщения
Вы не можете удалять свои сообщения
Вы не можете голосовать в опросах
Вы не можете прикреплять файлы к сообщениям
Вы не можете скачивать файлы