Статистика раздачи
Размер:  436 MB   |    Зарегистрирован:  2 года 9 месяцев   |    Скачан:  32 раза
Сидов:  1  [  0 KB/s  ]   Подробная статистика пиров
 
 
 
Luis Fonsi - Despacito ft. Daddy Yankee (2017) WEBRip 1080p | 60 fps Taylor Swift - …Ready For It? (2017) WEBRip 1080p | 60 fps Jennifer Lopez feat. Gente de Zona - Ni Tu Ni Yo (2017) WEBRip 1080p | 60 fps Katy Perry - Dark Horse (2014) Full HD 1080p | 60 fps Taylor Swift - Look What You Made Me Do (2017) WEBRip 1080p | 60 fps Serebro - В Космосе (2017) Full HD 1080p | 60 fps Inna - Gimme Gimme (2017) Full HD 1080p | 60 fps Britney Spears - Toxic (2004) HDTVRip 1080p | 60 fps Shakira - Chantaje ft. Maluma (2016) Full HD 1080p | 60 fps Serebro - Пройдёт (Mood Video) (2017) Full HD 1080p | 60 fps Dan Balan - Chica Bomb (2010) WEBRip 1080p | 60 fps Глюк'oZа feat. Artik & Asti - Пахну лишь тобой (2017) 2K | WEBRip | 60 fps
  1. Стаж:
    3 года 1 месяц
    Сообщений:
    284
    Пол:
    Мужской
     
    Psy - Right Now (2010) HDTVRip 1080p | 60 fps

    Информация о Клипе:
    Исполнители: Psy
    Название: Right Now
    Год выпуска: 2010 г.
    Жанр: Поп
    Страна: Корея
    Продолжительность: 04м.32с.

    Файл:
    Формат видео: MKV
    Качество видео: HDTVRip 1080p | 60 fps
    Видео кодек: H.264
    Аудио кодек: AC3
    Видео: 1916x1080 | 60,000 кадров/сек | 13,0 Мбит/сек
    Аудио: AC3 | 2 channels | 48 kHz |384 Кбит/сек

    Автор Рипа:Kamikkadze

    MediaInfo

    Видео
    Идентификатор : 1
    Формат : AVC
    Формат/Информация : Advanced Video Codec
    Профиль формата : High@L4.2
    Параметр CABAC формата : Да
    Параметр ReFrames формата : 4 кадра
    Идентификатор кодека : V_MPEG4/ISO/AVC
    Продолжительность : 4 м. 32 с.
    Битрейт : 13,0 Мбит/сек
    Ширина : 1916 пикселей
    Высота : 1080 пикселей
    Соотношение сторон : 16:9
    Режим частоты кадров : Постоянный
    Частота кадров : 60,000 кадров/сек
    Цветовое пространство : YUV
    Субдискретизация насыщенности : 4:2:0
    Битовая глубина : 8 бит
    Тип развёртки : Прогрессивная
    Бит/(Пиксели*Кадры) : 0.105
    Размер потока : 415 Мбайт (95%)
    Заголовок : Rip By Kamikkadze(Специально для проекта 60-fps.org)
    Библиотека кодирования : x264 core 146 r2538 121396c
    Настройки программы : cabac=1 / ref=3 / deblock=1:0:0 / analyse=0x3:0x113 / me=hex / subme=7 / psy=1 / psy_rd=1.00:0.00 / mixed_ref=1 / me_range=16 / chroma_me=1 / trellis=1 / 8x8dct=1 / cqm=0 / deadzone=21,11 / fast_pskip=1 / chroma_qp_offset=-2 / threads=6 / lookahead_threads=1 / sliced_threads=0 / nr=0 / decimate=1 / interlaced=0 / bluray_compat=0 / constrained_intra=0 / bframes=3 / b_pyramid=2 / b_adapt=1 / b_bias=0 / direct=1 / weightb=1 / open_gop=0 / weightp=2 / keyint=250 / keyint_min=25 / scenecut=40 / intra_refresh=0 / rc_lookahead=40 / rc=2pass / mbtree=1 / bitrate=12999 / ratetol=1.0 / qcomp=0.60 / qpmin=0 / qpmax=69 / qpstep=4 / cplxblur=20.0 / qblur=0.5 / ip_ratio=1.40 / aq=1:1.00
    Default : Да
    Forced : Нет
    Аудио
    Идентификатор : 2
    Формат : AC-3
    Формат/Информация : Audio Coding 3
    Расширение режима : CM (complete main)
    Параметр Endianness формата : Big
    Идентификатор кодека : A_AC3
    Продолжительность : 4 м. 32 с.
    Вид битрейта : Постоянный
    Битрейт : 384 Кбит/сек
    Каналы : 2 канала
    Расположение каналов : Front: L R
    Частота : 44,1 КГц
    Битовая глубина : 16 бит
    Метод сжатия : С потерями
    Размер потока : 12,5 Мбайт (3%)
    Заголовок : Rip By Kamikkadze(Специально для проекта 60-fps.org)
    Default : Да
    Forced : Нет
    Просьба к переливающим на другие сайты, в оформлении указывайте пожалуйста авторство рипа - Kamikkadze
    [60-fps.org].t659.torrent
    Торрент: Зарегистрирован 2015-05-09 23:34
    HASH: 9AB3EA4B8CDAC428723403A0DE53BD8050103D81
    Статус: проверено
    Скачан: 32 раз
    Сидов: 1 [0 KB/s]
    Личеров: 0
    Оценка:
    (Голосов: 1)
    Поблагодарили: 5  Спасибо   (список)
    Похожие Темы


Вы не можете начинать темы
Вы не можете отвечать на сообщения
Вы не можете редактировать свои сообщения
Вы не можете удалять свои сообщения
Вы не можете голосовать в опросах
Вы не можете прикреплять файлы к сообщениям
Вы можете скачивать файлы