[Цитировать]
Гость

-Название: Противостояние
Оригинальное название: The One
Год выпуска: 2001
Страна: США
Жанр: фантастика, боевик, триллер
Продолжительность: 01:27:20
Перевод: Дубляж
Субтитры: русские (Полные), английские (Полные)-Режиссер: Джеймс Вонг / James Wong-В ролях: Джет Ли (Gabe Law / Gabriel Yulaw / Lawless), Джейсон Стэйтем (MVA Agent Evan Funsch), Карла Гуджино (T.K. Law / Massie Walsh), Делрой Линдо (MVA Agent Harry Roedecker / Gas Station Attendant), Джеймс Моррисон (LAPD Officer Bobby Aldrich / «A» World Inmate #1), Дилан Бруно (Yates), Ричард Стейнметц (D'Antoni), Стив Рэнкин (MVA Supervisor), Такер Смоллвуд (Prison Warden), Харриет Сэнсом Харрис (Nurse Besson), Дэвид Китс (MRI Technician), Дин Норрис (Sgt. Siegel)-Описание:
Что делать, если твой мир рушится, когда в него вторгается безжалостный пришелец из параллельных миров? Стремясь стать сверхчеловеком, агент Межпространственного Бюро Расследований Юло совершает головокружительное сафари по параллельным мирам, охотясь за своими двойниками.
Силы его растут с каждой новой жертвой, их жизненная энергия аккумулируется в нем, наделяя его невероятными способностями. Никто не знает, что случится с хрупким равновесием вселенных, если Юло достигнет своей цели - уничтожить всех двойников. Его мечта уже почти становится реальностью, когда на пути Юло становится Гэйб - полицейский из Лос-Анджелеса...-Рейтинг

imdb.com: 5.90 (69 485)
MPAA: PG-13 - Детям до 13 лет просмотр не желателен-Автор рипа:Tiberiumsun69
-Качество: BDRip 1080p / 60 FPS
Формат: MKV
Видео кодек: AVC
Аудио кодек:AC3, DTS-HD
Видео: AVC, 1920x800, 12131 kbps, 59,940 fps
Аудио №1: русский / AC3 / 5.1 / 48 kHz / 640 kbps / 16 bit |Дубляж|
Аудио №2: русский / AC3 / 5.1 / 48 kHz / 640 kbps / 16 bit |Многоголосый, закадровый|
Аудио №3: английский / AC3 / 5.1 / 48 kHz / 640 kbps / 16 bit
Аудио №4: русский / DTS-HD / 5.1 / 48 kHz / 1560 kbps / 16 bit |Дубляж|
Навигация по главам: есть- -

MI

General
Unique ID : 183270939498806584589716190166542980772 (0x89E0B2F3BD5FB498929D3FBE688016A4)
Complete name : A:1080p 60fpsПротивостояние 1080p 60fps.mkv
Format : Matroska
Format version : Version 4 / Version 2
File size : 9.72 GiB
Duration : 1h 27mn
Overall bit rate mode : Variable
Overall bit rate : 15.9 Mbps
Encoded date : UTC 2014-09-29 12:41:49
Writing application : mkvmerge v6.9.1 ('Blue Panther') 64bit built on Apr 18 2014 18:23:38
Writing library : libebml v1.3.0 + libmatroska v1.4.1
Attachment : Yes
Video
ID : 1
Format : AVC
Format/Info : Advanced Video Codec
Format profile : High@L4.1
Format settings, CABAC : Yes
Format settings, ReFrames : 4 frames
Codec ID : V_MPEG4/ISO/AVC
Duration : 1h 27mn
Bit rate : 12.1 Mbps
Width : 1 920 pixels
Height : 800 pixels
Display aspect ratio : 2.40:1
Frame rate : 59.940 fps
Color space : YUV
Chroma subsampling : 4:2:0
Bit depth : 8 bits
Scan type : Progressive
Bits/(Pixel*Frame) : 0.132
Stream size : 7.40 GiB (76%)
Writing library : x264 core 130 r2273 b3065e6
Encoding settings : cabac=1 / ref=4 / deblock=1:0:0 / analyse=0x3:0 / me=umh / subme=9 / psy=1 / psy_rd=0.00:0.00 / mixed_ref=1 / me_range=42 / chroma_me=0 / trellis=1 / 8x8dct=1 / cqm=0 / deadzone=21,11 / fast_pskip=0 / chroma_qp_offset=0 / threads=12 / lookahead_threads=1 / sliced_threads=0 / nr=0 / decimate=0 / interlaced=0 / bluray_compat=0 / constrained_intra=0 / bframes=5 / b_pyramid=2 / b_adapt=2 / b_bias=0 / direct=1 / weightb=1 / open_gop=0 / weightp=2 / keyint=594 / keyint_min=59 / scenecut=40 / intra_refresh=0 / rc=crf / mbtree=0 / crf=16.0 / qcomp=0.60 / qpmin=0 / qpmax=69 / qpstep=4 / ip_ratio=1.40 / pb_ratio=1.30 / aq=1:0.90
Language : English
Default : Yes
Forced : No
Audio #1
ID : 2
Format : AC-3
Format/Info : Audio Coding 3
Mode extension : CM (complete main)
Codec ID : A_AC3
Duration : 1h 27mn
Bit rate mode : Constant
Bit rate : 640 Kbps
Channel(s) : 6 channels
Channel positions : Front: L C R, Side: L R, LFE
Sampling rate : 48.0 KHz
Bit depth : 16 bits
Compression mode : Lossy
Stream size : 400 MiB (4%)
Title : Дубляж
Language : Russian
Default : Yes
Forced : No
Audio #2
ID : 3
Format : AC-3
Format/Info : Audio Coding 3
Mode extension : CM (complete main)
Codec ID : A_AC3
Duration : 1h 27mn
Bit rate mode : Constant
Bit rate : 640 Kbps
Channel(s) : 6 channels
Channel positions : Front: L C R, Side: L R, LFE
Sampling rate : 48.0 KHz
Bit depth : 16 bits
Compression mode : Lossy
Stream size : 400 MiB (4%)
Title : Многоголосый, закадровый
Language : Russian
Default : No
Forced : No
Audio #3
ID : 4
Format : AC-3
Format/Info : Audio Coding 3
Mode extension : CM (complete main)
Codec ID : A_AC3
Duration : 1h 27mn
Bit rate mode : Constant
Bit rate : 640 Kbps
Channel(s) : 6 channels
Channel positions : Front: L C R, Side: L R, LFE
Sampling rate : 48.0 KHz
Bit depth : 16 bits
Compression mode : Lossy
Stream size : 400 MiB (4%)
Title : Оригинал
Language : English
Default : No
Forced : No
Audio #4
ID : 5
Format : DTS
Format/Info : Digital Theater Systems
Format profile : MA / Core
Codec ID : A_DTS
Duration : 1h 27mn
Bit rate mode : Variable
Bit rate : 1 561 Kbps / 1 510 Kbps
Channel(s) : 6 channels
Channel positions : Front: L C R, Side: L R, LFE
Sampling rate : 48.0 KHz
Bit depth : 16 bits
Compression mode : Lossless / Lossy
Title : Дубляж
Language : Russian
Default : No
Forced : No
Text #1
ID : 6
Format : UTF-8
Codec ID : S_TEXT/UTF8
Codec ID/Info : UTF-8 Plain Text
Title : Полные
Language : Russian
Default : No
Forced : No
Text #2
ID : 7
Format : UTF-8
Codec ID : S_TEXT/UTF8
Codec ID/Info : UTF-8 Plain Text
Title : Полные
Language : English
Default : No
Forced : No
Menu
00:00:00.000 : en:Chapter 1
00:04:14.588 : en:Chapter 2
00:08:28.633 : en:Chapter 3
00:14:19.359 : en:Chapter 4
00:18:58.971 : en:Chapter 5
00:24:36.725 : en:Chapter 6
00:32:51.178 : en:Chapter 7
00:38:36.314 : en:Chapter 8
00:45:15.671 : en:Chapter 9
00:49:59.997 : en:Chapter 10
00:55:28.075 : en:Chapter 11
00:58:35.846 : en:Chapter 12
01:03:10.870 : en:Chapter 13
01:06:21.394 : en:Chapter 14
01:13:26.152 : en:Chapter 15
01:17:42.950 : en:Chapter 16

Скриншоты

Просьба к переливающим на другие сайты, в оформлении указывайте пожалуйста авторство рипа - Tiberiumsun69

[Цитировать]
Андрей 60

Спасибо! Посмотрю в 60
 
Показать сообщения:    

Текущее время: 05-Дек 05:23

Часовой пояс: UTC + 3


Вы не можете начинать темы
Вы не можете отвечать на сообщения
Вы не можете редактировать свои сообщения
Вы не можете удалять свои сообщения
Вы не можете голосовать в опросах
Вы не можете прикреплять файлы к сообщениям
Вы не можете скачивать файлы