Britney Spears - Toxic (2004) HDTVRip 1080p | 60 fps Dan Balan - Chica Bomb (2010) WEBRip 1080p | 60 fps Britney Spears - Oops! I Did It Again Uncut (2009) HD 1080p | 60 fps Luis Fonsi - Despacito ft. Daddy Yankee (2017) WEBRip 1080p | 60 fps Bebe Rexha - I Got You (2017) WEBRip 1080p | 60 fps Britney Spears - Lucky (2009) Full HD 1080p | 60 fps Britney Spears - Stronger (2009) Full HD 1080p | 60 fps Spice Girls - Wannabe (1996) Full HD 1080p | 60 fps
  1. Longevity:
    4 years 9 months
    Posts:
    2411
    Gender:
    Male
    --Пропаганда - Я написала любовь (2013) WEBRip 1080p | 60 fps --Информация о Клипе
    Исполнитель: Пропаганда
    Название: Я написала любовь
    Год выхода: 2013
    Продолжительность: 00:03:22-Файл
    Кодек: MPEG4/ISO/AVC/ H.264
    Формат: MKV
    Качество: WEBRip 1080p
    Видео: 1920 x 1080 (1.778) at 60.000 fps7.0 Мбит/сек
    Аудио: MP3 | MPEG Audio at 320 Кбит/сек| 44.1 KHz | 2 channels

    MI

    Видео
    Идентификатор : 1
    Формат : AVC
    Формат/Информация : Advanced Video Codec
    Профиль формата : High@L4.1
    Параметр CABAC формата : Да
    Параметр ReFrames формата : 4 кадра
    Идентификатор кодека : V_MPEG4/ISO/AVC
    Продолжительность : 3 м. 22 с.
    Битрейт : 6999 Кбит/сек
    Ширина : 1920 пикселей
    Высота : 1080 пикселей
    Соотношение сторон : 16:9
    Режим частоты кадров : Постоянный
    Частота кадров : 60,000 кадров/сек
    Цветовое пространство : YUV
    Субдискретизация насыщенности : 4:2:0
    Битовая глубина : 8 бит
    Тип развёртки : Прогрессивная
    Бит/(Пиксели*Кадры) : 0.056
    Размер потока : 166 Мбайт (94%)
    Заголовок : www.60-fps.org
    Библиотека кодирования : x264 core 129 r2245 bc13772
    Настройки программы : cabac=1 / ref=4 / deblock=1:-1:-1 / analyse=0x3:0x133 / me=esa / subme=9 / psy=1 / psy_rd=1.00:0.00 / mixed_ref=1 / me_range=32 / chroma_me=1 / trellis=2 / 8x8dct=1 / cqm=0 / deadzone=21,11 / fast_pskip=1 / chroma_qp_offset=-2 / threads=12 / lookahead_threads=2 / sliced_threads=0 / nr=0 / decimate=1 / interlaced=0 / bluray_compat=0 / constrained_intra=0 / bframes=3 / b_pyramid=2 / b_adapt=2 / b_bias=0 / direct=3 / weightb=1 / open_gop=0 / weightp=2 / keyint=600 / keyint_min=60 / scenecut=40 / intra_refresh=0 / rc_lookahead=60 / rc=2pass / mbtree=1 / bitrate=6999 / ratetol=1.0 / qcomp=0.60 / qpmin=0 / qpmax=69 / qpstep=4 / cplxblur=19.0 / qblur=0.0 / ip_ratio=1.40 / aq=1:1.00
    Язык : English
    Default : Нет
    Forced : Нет
    Аудио
    Идентификатор : 2
    Формат : MPEG Audio
    Версия формата : Version 1
    Профиль формата : Layer 3
    Режим : Joint stereo
    Расширение режима : MS Stereo
    Идентификатор кодека : A_MPEG/L3
    Идентификатор кодека/Подсказка : MP3
    Продолжительность : 3 м. 22 с.
    Вид битрейта : Постоянный
    Битрейт : 320 Кбит/сек
    Каналы : 2 канала
    Частота : 44,1 КГц
    Метод сжатия : С потерями
    Размер потока : 7,73 Мбайт (4%)
    Заголовок : www.60-fps.org
    Библиотека кодирования : LAME3.99.5
    Default : Да
    Forced : Нет
  2. ZHz

    Longevity:
    4 years 8 months
    Posts:
    186
    Gender:
    Male
    О_о эта группа еще существует? Вот только участниц не узнаю
    22-Dec-2014 22:09 (after 1 minute)
  3. Longevity:
    4 years 9 months
    Posts:
    2411
    Gender:
    Male
    да , я так сделал , что тетеньки красивые ))))
    22-Dec-2014 22:19 (after 10 minutes)
  4. Longevity:
    4 years 6 months
    Posts:
    4
    Gender:
    Unknown
    Спасибо
    24-Dec-2014 21:57 (after 1 day 23 hours)
  5. Longevity:
    4 years 9 months
    Posts:
    2411
    Gender:
    Male
    пожалуйста .....
    25-Dec-2014 00:44 (after 2 hours 46 minutes)


You cannot post new topics in this forum
You cannot reply to topics in this forum
You cannot edit your posts in this forum
You cannot delete your posts in this forum
You cannot vote in polls in this forum
You cannot attach files in this forum
You cannot download files in this forum