Властелин колец: Трилогия / The Lord of the Rings: Trilogy (2001-2003) BDRip-AVC | Extended Cut | 60 fps Битва за Землю / Captive State (2019) BDRip 1080p | 60 fps Снегоуборщик / Cold Pursuit (2019) BDRip 1080p | 60 fps Дамбо / Dumbo (2019) BDRip 1080p | 60 fps Джон Уик / John Wick (2014) BDRip 720p | 60 fps Клаустрофобы / Escape Room (2019) BDRip 1080p | 60 fps Проклятие плачущей / The Curse of La Llorona (2019) BDRip 720p | 60 fps Ван Хельсинг / Van Helsing (2004) BDRip-AVC | 60 fps
  1. Longevity:
    5 years 2 months
    Posts:
    2418
    Gender:
    Male
    «Payback is a Mother» Информация
    Название: Проникновение
    Оригинальное название: Breaking In
    Год выхода: 2018
    Жанр: Боевик, триллер, драма, криминал
    Режиссер: Джеймс МакТиг
    Сценарий: Райан Ингл, Jaime Primak Sullivan
    Продюсер: Джеймс Лопес, Уильям Пэкер
    В ролях: Гэбриэл Юнион, Билли Бёрк, Ричард Кебрал, Аджиона Алексус, Леви Миден, Сет Карр, Марк Фурз, Джейсон Уинстон Джордж, Криста Миллер, Дэмиен Лик

    Сюжет:
    Мать с двумя детьми после смерти отца приезжает в уединённый дом, чтобы разобраться с делами усопшего. Особняк оборудован по последнему слову техники и готов к продолжительной осаде. Спокойствие нарушает группа бандитов, мечтающая добраться до миллионов, скрытых в хранилище особняка. Но никакие ловушки или непробиваемые двери не смогут остановить разъярённую мать, когда её детям грозит опасность.

    Страна: США
    Продолжительность: 01:28:25

    Файл
    Кодек: H.264
    Формат: MKV
    Качество: BDRip 720p | 60 fps
    Видео: 1280 x 536 (2.388) | 59.940 fps | 10.0 Мбит/сек
    Аудио 01: AC3 | 2.0 | 48 kHz | 192 kbps | 16 bit | HDRezka Studio |
    Аудио 02: AC3 | 5.1 | 48 kHz | 448 kbps | 16 bit | english |
    Субтитры: английские

    MedifInfo

    Видео
    Идентификатор : 1
    Формат : AVC
    Формат/Информация : Advanced Video Codec
    Профиль формата : Main@L4.1
    Настройки формата : CABAC / 4 Ref Frames
    Параметр CABAC формата : Да
    Параметр RefFrames формата : 4 кадра
    Режим смешивания : Header stripping
    Идентификатор кодека : V_MPEG4/ISO/AVC
    Продолжительность : 1 ч. 28 м.
    Битрейт : 9999 Кбит/сек
    Ширина : 1280 пикселей
    Высота : 536 пикселей
    Соотношение сторон : 2,40:1
    Режим частоты кадров : Постоянный
    Частота кадров : 59,940 (60000/1001) кадров/сек
    Цветовое пространство : YUV
    Субдискретизация насыщенности : 4:2:0
    Битовая глубина : 8 бит
    Тип развёртки : Прогрессивная
    Бит/(Пиксели*Кадры) : 0.243
    Размер потока : 6,04 Гбайт (92%)
    Заголовок : www/60-fps.org
    Библиотека кодирования : x264 core 155 r2901 7d0ff22
    Настройки программы : cabac=1 / ref=3 / deblock=1:-3:-3 / analyse=0x1:0x111 / me=hex / subme=7 / psy=1 / psy_rd=1.00:0.25 / mixed_ref=1 / me_range=16 / chroma_me=1 / trellis=1 / 8x8dct=0 / cqm=0 / deadzone=6,6 / fast_pskip=1 / chroma_qp_offset=-4 / threads=12 / lookahead_threads=2 / sliced_threads=0 / nr=0 / decimate=0 / interlaced=0 / bluray_compat=0 / constrained_intra=0 / bframes=3 / b_pyramid=2 / b_adapt=1 / b_bias=0 / direct=1 / weightb=1 / open_gop=0 / weightp=2 / keyint=599 / keyint_min=59 / scenecut=40 / intra_refresh=0 / rc_lookahead=40 / rc=2pass / mbtree=1 / bitrate=9999 / ratetol=1.0 / qcomp=0.80 / qpmin=0 / qpmax=69 / qpstep=4 / cplxblur=20.0 / qblur=0.5 / vbv_maxrate=50000 / vbv_bufsize=62500 / nal_hrd=none / filler=0 / ip_ratio=1.10 / aq=1:0.50
    Default : Да
    Forced : Нет
    Аудио #1
    Идентификатор : 2
    Формат : AC-3
    Формат/Информация : Audio Coding 3
    Режим смешивания : Header stripping
    Идентификатор кодека : A_AC3
    Продолжительность : 1 ч. 28 м.
    Вид битрейта : Постоянный
    Битрейт : 192 Кбит/сек
    Каналы : 2 канала
    Расположение каналов : Front: L R
    Частота : 48,0 КГц
    Частота кадров : 31,250 кадров/сек (1536 SPF)
    Битовая глубина : 16 бит
    Метод сжатия : С потерями
    Размер потока : 121 Мбайт (2%)
    Заголовок : HDrezka Studio
    Язык : Russian
    ServiceKind/String : Complete Main
    Default : Да
    Forced : Нет
    Аудио #2
    Идентификатор : 3
    Формат : AC-3
    Формат/Информация : Audio Coding 3
    Режим смешивания : Header stripping
    Идентификатор кодека : A_AC3
    Продолжительность : 1 ч. 28 м.
    Вид битрейта : Постоянный
    Битрейт : 448 Кбит/сек
    Каналы : 6 каналов
    Расположение каналов : Front: L C R, Side: L R, LFE
    Частота : 48,0 КГц
    Частота кадров : 31,250 кадров/сек (1536 SPF)
    Битовая глубина : 16 бит
    Метод сжатия : С потерями
    Размер потока : 283 Мбайт (4%)
    Заголовок : english
    Язык : English
    ServiceKind/String : Complete Main
    Default : Нет
    Forced : Нет

    Release was prepared by 60 - fps

  2. Longevity:
    1 year 7 months
    Posts:
    34
    Gender:
    Male
    Дубляж стоит ждать?
    28-Sep-2018 04:16 (after 1 month 21 day)
  3. Longevity:
    3 years 3 months
    Posts:
    1044
    Gender:
    Male
    10291Дубляж стоит ждать?
    Думаю,что смогу сделать и дубляж... ,если ты мне в этом поможешь,то я буду очень признателен !
    От тебя требуется просто мне скинуть в личные сообщения с ссылкой где есть такой релиз с дубляжкой... !
    28-Sep-2018 12:52 (after 8 hours)
  4. Longevity:
    1 year 7 months
    Posts:
    34
    Gender:
    Male
    Сообщение появится после проверки модератором
    06-Oct-2018 15:06 (after 8 days)


You cannot post new topics in this forum
You cannot reply to topics in this forum
You cannot edit your posts in this forum
You cannot delete your posts in this forum
You cannot vote in polls in this forum
You cannot attach files in this forum
You cannot download files in this forum