[Цитировать]
Kryl

Прометей

-Название: Прометей
Оригинальное название: Prometheus
Год выпуска: 2012
Страна: США, Великобритания
Жанр: фантастика детектив, приключения
Продолжительность: 02:03:46
Перевод: Дубляж - [Лицензия]
Субтитры: русские (Форсированные), русские (Полные), английские (Полные)-Режиссер: Ридли Скотт-В ролях: Нуми Рапас (Elizabeth Shaw), Майкл Фассбендер (David), Шарлиз Терон (Meredith Vickers), Идрис Эльба (Janek), Гай Пирс (Peter Weyland), Логан Маршалл-Грин (Charlie Holloway), Шон Харрис (Fifield), Рейф Сполл (Millburn), Иман Эллиотт (Chance), Бенедикт Вонг (Ravel), Кейт Дики (Ford), Брануэлл Донахи (Mercenary 1)-Описание:
В поисках сакрального знания группа ученых отправляется в самые темные и неизведанные чертоги вселенной. Именно там, в отдаленных мирах, находясь на пределе своих умственных и физических возможностей, им предстоит вступить в безжалостную схватку за будущее всего человечества...-Рейтинг:

MPAA: R - Лицам до 17 лет обязательно присутствие взрослого-Качество: BDRip-AVC 60fps
Формат: MKV
Видео: AVC, 1024x424 (2.40:1), 3900 kbps, 59,940 fps, 0,150 bpp
Аудио: русский / AC3 / 5.1 / 48 kHz / 640 kbps / 16 bit
Навигация по главам: есть- -

ОтчетМедиаИнфо

General
Unique ID : 197251085205659076645892507641800087684 (0x94652D5A193E87A78E579DBC0644D884)
Format : Matroska
Format version : Version 4 / Version 2
File size : 3.92 GiB
Duration : 2h 3mn
Overall bit rate : 4 533 Kbps
Movie name : Tiberiumsun69
Encoded date : UTC 2015-11-14 08:43:18
Writing application : mkvmerge v8.3.0 ('Over the Horizon') 64bit
Writing library : libebml v1.3.1 + libmatroska v1.4.2
Attachment : Yes
Video
ID : 1
Format : AVC
Format/Info : Advanced Video Codec
Format profile : High@L4.1
Format settings, CABAC : Yes
Format settings, ReFrames : 4 frames
Codec ID : V_MPEG4/ISO/AVC
Duration : 2h 3mn
Bit rate : 3 900 Kbps
Width : 1 024 pixels
Height : 424 pixels
Display aspect ratio : 2.40:1
Frame rate : 59.940 fps
Color space : YUV
Chroma subsampling : 4:2:0
Bit depth : 8 bits
Scan type : Progressive
Bits/(Pixel*Frame) : 0.150
Stream size : 3.29 GiB (84%)
Title : Tiberiumsun69
Writing library : x264 core 146 r2538 121396c
Encoding settings : cabac=1 / ref=3 / deblock=1:0:0 / analyse=0x3:0x113 / me=umh / subme=9 / psy=1 / psy_rd=1.00:0.10 / mixed_ref=1 / me_range=32 / chroma_me=1 / trellis=2 / 8x8dct=1 / cqm=0 / deadzone=21,11 / fast_pskip=0 / chroma_qp_offset=-3 / threads=12 / lookahead_threads=3 / sliced_threads=0 / nr=0 / decimate=1 / interlaced=0 / bluray_compat=0 / constrained_intra=0 / bframes=16 / b_pyramid=2 / b_adapt=2 / b_bias=0 / direct=3 / weightb=1 / open_gop=0 / weightp=2 / keyint=600 / keyint_min=59 / scenecut=40 / intra_refresh=0 / rc_lookahead=40 / rc=2pass / mbtree=0 / bitrate=3900 / ratetol=1.0 / qcomp=0.60 / qpmin=0 / qpmax=69 / qpstep=4 / cplxblur=20.0 / qblur=0.5 / vbv_maxrate=14000 / vbv_bufsize=14000 / nal_hrd=none / filler=0 / ip_ratio=1.40 / pb_ratio=1.30 / aq=1:1.00
Language : English
Default : Yes
Forced : No
Audio
ID : 2
Format : AC-3
Format/Info : Audio Coding 3
Mode extension : CM (complete main)
Codec ID : A_AC3
Duration : 2h 3mn
Bit rate mode : Constant
Bit rate : 640 Kbps
Channel(s) : 6 channels
Channel positions : Front: L C R, Side: L R, LFE
Sampling rate : 48.0 KHz
Bit depth : 16 bits
Compression mode : Lossy
Stream size : 567 MiB (14%)
Title : Дубляж
Language : Russian
Default : Yes
Forced : No
Text #1
ID : 3
Format : UTF-8
Codec ID : S_TEXT/UTF8
Codec ID/Info : UTF-8 Plain Text
Title : Форсированные
Language : Russian
Default : Yes
Forced : No
Text #2
ID : 4
Format : UTF-8
Codec ID : S_TEXT/UTF8
Codec ID/Info : UTF-8 Plain Text
Title : Полные
Language : Russian
Default : No
Forced : No
Text #3
ID : 5
Format : UTF-8
Codec ID : S_TEXT/UTF8
Codec ID/Info : UTF-8 Plain Text
Title : Полные
Language : English
Default : No
Forced : No
Menu
00:00:00.000 : en:Chapter 1
00:05:13.146 : en:Chapter 2
00:07:44.881 : en:Chapter 3
00:11:31.524 : en:Chapter 4
00:15:09.784 : en:Chapter 5
00:20:04.912 : en:Chapter 6
00:22:32.810 : en:Chapter 7
00:27:43.120 : en:Chapter 8
00:31:57.833 : en:Chapter 9
00:34:10.840 : en:Chapter 10
00:37:53.229 : en:Chapter 11
00:40:45.360 : en:Chapter 12
00:45:49.330 : en:Chapter 13
00:48:47.925 : en:Chapter 14
00:50:23.062 : en:Chapter 15
00:53:56.400 : en:Chapter 16
00:56:32.222 : en:Chapter 17
00:59:31.610 : en:Chapter 18
01:01:29.185 : en:Chapter 19
01:04:17.562 : en:Chapter 20
01:06:01.457 : en:Chapter 21
01:08:57.884 : en:Chapter 22
01:11:13.519 : en:Chapter 23
01:15:10.631 : en:Chapter 24
01:17:06.038 : en:Chapter 25
01:25:02.306 : en:Chapter 26
01:27:09.349 : en:Chapter 27
01:30:10.363 : en:Chapter 28
01:32:43.725 : en:Chapter 29
01:35:23.134 : en:Chapter 30
01:37:46.861 : en:Chapter 31
01:40:46.374 : en:Chapter 32
01:43:46.220 : en:Chapter 33
01:48:28.794 : en:Chapter 34
01:52:08.096 : en:Chapter 35
01:58:06.288 : en:Chapter 36

Скриншоты

Чужой (Director's Cut)

-Название: Чужой
Оригинальное название: Alien
Год выпуска: 1979
Страна: США, Великобритания
Жанр: ужасы, фантастика
Продолжительность: 01:55:49
Перевод: Дубляж - [Лицензия]
Субтитры: русские (Полные), английские (Полные)-Режиссер: Ридли Скотт-В ролях: Сигурни Уивер (Ripley), Том Скеррит (Dallas), Иэн Холм (Ash), Джон Хёрт (Kane), Гарри Дин Стэнтон (Brett), Вероника Картрайт (Lambert), Яфет Котто (Parker), Боладжи Бадеджо (Alien), Хелен Хортон (Mother, озвучка), Эдди Пауэлл (Alien, в титрах не указан)-Описание:
В далеком будущем возвращающийся на Землю грузовой космический корабль перехватывает исходящий с неизвестной планеты неопознанный сигнал. Экипаж принимает решение совершить посадку и разобраться, в чем дело. Оказавшись на планете, астронавты повсюду обнаруживают неопознанные предметы, по виду напоминающие гигантские коконы...-Рейтинг:

MPAA: R - Лицам до 17 лет обязательно присутствие взрослого-Качество: BDRip-AVC 60fps
Формат: MKV
Видео: AVC, 1024x432 (2.35:1), 4000 kbps, 59,940 fps, 0,151 bpp
Аудио: русский / AC3 / 5.1 / 48 kHz / 640 kbps / 16 bit
Навигация по главам: есть- -

ОтчетМедиаИнфо

General
Unique ID : 222367284126213852422259978716101978329 (0xA74A6190C1EAB8C7B56C26B8CEC3A8D9)
Format : Matroska
Format version : Version 4 / Version 2
File size : 3.76 GiB
Duration : 1h 55mn
Overall bit rate : 4 642 Kbps
Movie name : Tiberiumsun69
Encoded date : UTC 2015-11-14 08:53:11
Writing application : mkvmerge v8.3.0 ('Over the Horizon') 64bit
Writing library : libebml v1.3.1 + libmatroska v1.4.2
Attachment : Yes
Video
ID : 1
Format : AVC
Format/Info : Advanced Video Codec
Format profile : High@L4.1
Format settings, CABAC : Yes
Format settings, ReFrames : 4 frames
Codec ID : V_MPEG4/ISO/AVC
Duration : 1h 55mn
Bit rate : 4 000 Kbps
Width : 1 024 pixels
Height : 432 pixels
Display aspect ratio : 2.35:1
Frame rate : 59.940 fps
Color space : YUV
Chroma subsampling : 4:2:0
Bit depth : 8 bits
Scan type : Progressive
Bits/(Pixel*Frame) : 0.151
Stream size : 3.16 GiB (84%)
Title : Tiberiumsun69
Writing library : x264 core 146 r2538 121396c
Encoding settings : cabac=1 / ref=3 / deblock=1:0:0 / analyse=0x3:0x113 / me=umh / subme=9 / psy=1 / psy_rd=1.00:0.10 / mixed_ref=1 / me_range=32 / chroma_me=1 / trellis=2 / 8x8dct=1 / cqm=0 / deadzone=21,11 / fast_pskip=0 / chroma_qp_offset=-3 / threads=12 / lookahead_threads=3 / sliced_threads=0 / nr=0 / decimate=1 / interlaced=0 / bluray_compat=0 / constrained_intra=0 / bframes=16 / b_pyramid=2 / b_adapt=2 / b_bias=0 / direct=3 / weightb=1 / open_gop=0 / weightp=2 / keyint=600 / keyint_min=59 / scenecut=40 / intra_refresh=0 / rc_lookahead=40 / rc=2pass / mbtree=0 / bitrate=4000 / ratetol=1.0 / qcomp=0.60 / qpmin=0 / qpmax=69 / qpstep=4 / cplxblur=20.0 / qblur=0.5 / vbv_maxrate=14000 / vbv_bufsize=14000 / nal_hrd=none / filler=0 / ip_ratio=1.40 / pb_ratio=1.30 / aq=1:1.00
Language : English
Default : Yes
Forced : No
Audio
ID : 2
Format : AC-3
Format/Info : Audio Coding 3
Mode extension : CM (complete main)
Codec ID : A_AC3
Duration : 1h 55mn
Bit rate mode : Constant
Bit rate : 640 Kbps
Channel(s) : 6 channels
Channel positions : Front: L C R, Side: L R, LFE
Sampling rate : 48.0 KHz
Bit depth : 16 bits
Compression mode : Lossy
Stream size : 530 MiB (14%)
Title : Дубляж
Language : Russian
Default : Yes
Forced : No
Text #1
ID : 3
Format : UTF-8
Codec ID : S_TEXT/UTF8
Codec ID/Info : UTF-8 Plain Text
Title : Полные
Language : Russian
Default : No
Forced : No
Text #2
ID : 4
Format : UTF-8
Codec ID : S_TEXT/UTF8
Codec ID/Info : UTF-8 Plain Text
Title : Полные
Language : English
Default : No
Forced : No
Menu
00:00:00.000 : en:00:00:00.000
00:02:01.121 : en:00:02:01.121
00:04:40.155 : en:00:04:40.155
00:07:55.850 : en:00:07:55.850
00:09:10.508 : en:00:09:10.508
00:12:40.426 : en:00:12:40.426
00:14:16.105 : en:00:14:16.105
00:20:05.913 : en:00:20:05.913
00:23:22.651 : en:00:23:22.651
00:25:05.254 : en:00:25:05.254
00:27:50.877 : en:00:27:50.877
00:31:51.826 : en:00:31:51.826
00:35:32.922 : en:00:35:32.922
00:37:04.347 : en:00:37:04.347
00:40:33.890 : en:00:40:33.890
00:43:26.520 : en:00:43:26.520
00:47:28.304 : en:00:47:28.304
00:50:06.128 : en:00:50:06.128
00:51:44.309 : en:00:51:44.309
00:54:24.678 : en:00:54:24.678
00:59:01.746 : en:00:59:01.746
01:00:26.873 : en:01:00:26.873
01:03:36.312 : en:01:03:36.312
01:08:18.719 : en:01:08:18.719
01:10:04.951 : en:01:10:04.951
01:12:52.409 : en:01:12:52.409
01:14:33.928 : en:01:14:33.928
01:17:14.713 : en:01:17:14.713
01:19:02.905 : en:01:19:02.905
01:22:34.282 : en:01:22:34.282
01:26:39.235 : en:01:26:39.235
01:28:49.574 : en:01:28:49.574
01:30:48.735 : en:01:30:48.735
01:32:39.762 : en:01:32:39.762
01:34:23.783 : en:01:34:23.783
01:37:45.151 : en:01:37:45.151
01:39:14.448 : en:01:39:14.448
01:43:28.243 : en:01:43:28.243
01:46:17.955 : en:01:46:17.955
01:53:05.612 : en:01:53:05.612

Скриншоты

[url=http://i76.fastpic.ru/big/2015/1114/c3/dc4ae77750c3bcccdf54ef6088cca5c3.jpg]
[/url]

Чужие (Director's Cut)

-Название: Чужие
Оригинальное название: Aliens
Год выпуска: 1986
Страна: США, Великобритания
Жанр: ужасы, фантастика, боевик, триллер, приключения
Продолжительность: 02:34:26
Перевод: Дубляж - [Лицензия]
Субтитры: русские (Полные), английские (Полные)-Режиссер: Джеймс Кэмерон-В ролях: Сигурни Уивер (Ellen Ripley), Майкл Бин (Cpl. Dwayne Hicks), Кэрри Хенн (Rebecca «Newt» Jorden), Пол Райзер (Carter Burke), Лэнс Хенриксен (Bishop), Билл Пэкстон (Pvt. Hudson), Дженетт Голдстин (Pvt. Vasquez), Уильям Хоуп (Lt. Gorman), Эл Мэтьюз (Sgt. Apone), Марк Ролстон (Pvt. Drake), Рикко Росс (Pvt. Frost), Колетт Хиллер (Cpl. Ferro)-Описание:
Чужой - совершенный организм. Идеальная машина для убийства, чье физическое превосходство сочетается с его феноменальной жаждой уничтожения. Офицер Элен Рипли и команда космического корабля Ностромо один раз уже встретилась с такой тварью. В живых осталась только Элен.
Капсула с Элен найдена спасателями после многих лет блуждания в космосе. Ей сообщают, что планета L.V. 426 колонизирована, и ей придется вернуться туда, где начался ее кошмар, ибо связь с колонистами прервалась. И вот в составе группы космического десанта Рипли отправляется на проклятую планету. Но теперь их там поджидает не один Чужой, а тысячи. Кто сможет выжить в этой войне: чудовища, способные только убивать, или люди, способные мыслить?-Рейтинг:

MPAA: R - Лицам до 17 лет обязательно присутствие взрослого-Качество: BDRip-AVC 60fps
Формат: MKV
Видео: AVC, 1024x552 (1.855), 3280 kbps, 59,940 fps, 0,097 bpp
Аудио: русский / AC3 / 5.1 / 48 kHz / 384 kbps / 16 bit
Навигация по главам: есть- -

ОтчетМедиаИнфо

General
Unique ID : 253045464613787236850806313891765653891 (0xBE5EC8A46FD603E0BFE6E9A4E8AF9183)
Format : Matroska
Format version : Version 4 / Version 2
File size : 3.95 GiB
Duration : 2h 34mn
Overall bit rate : 3 666 Kbps
Movie name : Tiberiumsun69
Encoded date : UTC 2015-11-14 09:04:17
Writing application : mkvmerge v8.3.0 ('Over the Horizon') 64bit
Writing library : libebml v1.3.1 + libmatroska v1.4.2
Attachment : Yes
Video
ID : 1
Format : AVC
Format/Info : Advanced Video Codec
Format profile : High@L4.1
Format settings, CABAC : Yes
Format settings, ReFrames : 4 frames
Codec ID : V_MPEG4/ISO/AVC
Duration : 2h 34mn
Bit rate : 3 280 Kbps
Width : 1 024 pixels
Height : 552 pixels
Display aspect ratio : 1.855
Frame rate : 59.940 fps
Color space : YUV
Chroma subsampling : 4:2:0
Bit depth : 8 bits
Scan type : Progressive
Bits/(Pixel*Frame) : 0.097
Stream size : 3.46 GiB (88%)
Title : Tiberiumsun69
Writing library : x264 core 146 r2538 121396c
Encoding settings : cabac=1 / ref=3 / deblock=1:0:0 / analyse=0x3:0x113 / me=umh / subme=11 / psy=1 / psy_rd=1.00:0.10 / mixed_ref=1 / me_range=32 / chroma_me=1 / trellis=2 / 8x8dct=1 / cqm=0 / deadzone=21,11 / fast_pskip=0 / chroma_qp_offset=-3 / threads=12 / lookahead_threads=3 / sliced_threads=0 / nr=0 / decimate=1 / interlaced=0 / bluray_compat=0 / constrained_intra=0 / bframes=16 / b_pyramid=2 / b_adapt=2 / b_bias=0 / direct=3 / weightb=1 / open_gop=0 / weightp=2 / keyint=600 / keyint_min=59 / scenecut=40 / intra_refresh=0 / rc_lookahead=40 / rc=2pass / mbtree=0 / bitrate=3280 / ratetol=1.0 / qcomp=0.60 / qpmin=0 / qpmax=69 / qpstep=4 / cplxblur=20.0 / qblur=0.5 / vbv_maxrate=14000 / vbv_bufsize=14000 / nal_hrd=none / filler=0 / ip_ratio=1.40 / pb_ratio=1.30 / aq=1:1.00
Language : English
Default : Yes
Forced : No
Audio
ID : 2
Format : AC-3
Format/Info : Audio Coding 3
Mode extension : CM (complete main)
Codec ID : A_AC3
Duration : 2h 34mn
Bit rate mode : Constant
Bit rate : 384 Kbps
Channel(s) : 6 channels
Channel positions : Front: L C R, Side: L R, LFE
Sampling rate : 48.0 KHz
Bit depth : 16 bits
Compression mode : Lossy
Stream size : 424 MiB (10%)
Title : Дубляж
Language : Russian
Default : Yes
Forced : No
Text #1
ID : 3
Format : UTF-8
Codec ID : S_TEXT/UTF8
Codec ID/Info : UTF-8 Plain Text
Title : Полные
Language : Russian
Default : No
Forced : No
Text #2
ID : 4
Format : UTF-8
Codec ID : S_TEXT/UTF8
Codec ID/Info : UTF-8 Plain Text
Title : Полные
Language : English
Default : No
Forced : No
Menu
00:00:00.000 : en:00:00:00.000
00:02:06.752 : en:00:02:06.752
00:05:15.732 : en:00:05:15.732
00:08:34.347 : en:00:08:34.347
00:10:52.110 : en:00:10:52.110
00:15:13.621 : en:00:15:13.621
00:17:25.002 : en:00:17:25.002
00:20:54.128 : en:00:20:54.128
00:25:02.501 : en:00:25:02.501
00:25:57.473 : en:00:25:57.473
00:30:03.718 : en:00:30:03.718
00:32:53.888 : en:00:32:53.888
00:35:56.863 : en:00:35:56.863
00:38:03.531 : en:00:38:03.531
00:45:40.071 : en:00:45:40.071
00:52:28.520 : en:00:52:28.520
00:54:48.076 : en:00:54:48.076
00:56:09.116 : en:00:56:09.116
01:00:11.107 : en:01:00:11.107
01:04:47.508 : en:01:04:47.508
01:10:10.998 : en:01:10:10.998
01:12:51.992 : en:01:12:51.992
01:16:22.870 : en:01:16:22.870
01:21:22.252 : en:01:21:22.252
01:23:17.200 : en:01:23:17.200
01:26:21.134 : en:01:26:21.134
01:31:22.060 : en:01:31:22.060
01:34:37.422 : en:01:34:37.422
01:37:25.256 : en:01:37:25.256
01:38:40.706 : en:01:38:40.706
01:41:23.244 : en:01:41:23.244
01:45:03.464 : en:01:45:03.464
01:47:15.554 : en:01:47:15.554
01:51:41.403 : en:01:51:41.403
01:52:58.605 : en:01:52:58.605
02:02:10.364 : en:02:02:10.364
02:05:54.046 : en:02:05:54.046
02:07:41.987 : en:02:07:41.987
02:13:15.529 : en:02:13:15.529
02:17:29.616 : en:02:17:29.616
02:22:24.703 : en:02:22:24.703
02:23:16.713 : en:02:23:16.713
02:30:16.007 : en:02:30:16.007
02:31:36.462 : en:02:31:36.462

Скриншоты

Чужой 3 (Director's Cut)

-Название: Чужой 3
Оригинальное название: Alien 3
Год выпуска: 1992
Страна: США
Жанр: ужасы, фантастика, боевик, триллер
Продолжительность: 02:24:52
Перевод: Дубляж - [Лицензия]
Субтитры: русские (Полные), английские (Полные)-Режиссер: Дэвид Финчер-В ролях: Сигурни Уивер (Ellen Ripley), Чарльз С. Даттон (Dillon), Чарльз Дэнс (Clemens), Пол МакГанн (Golic), Брайан Гловер (Andrews), Ральф Браун (Aaron), Дэниэл Уэбб (Morse), Кристофер Джон Филдс (Rains), Холт МакКэллани (Junior), Лэнс Хенриксен (Bishop II), Кристофер Фэйрбэнк (Murphy), Карл Чейз (Frank)-Описание:
После бегства с планеты «Чужих» космический корабль Рипли терпит катастрофу вблизи так называемой планеты - тюрьмы, места, где отсиживают свой срок убийцы, насильники и прочие отбросы общества. Вместе с Рипли на эту планету попадает зародыш чужого, который и был причиной гибели корабля. Довольно быстро он превращается в гигантскую, зубастую тварь и начинает свое темное дело.
Его жертвами становятся десятки безоружных заключенных. Кровь брызжет фонтаном, куски человеческого мяса разлетаются во все стороны. И кажется, что остановить эту машину смерти не сможет никто, никто кроме отважной, но увы не бессмертной девушки по имени Рипли.-Рейтинг:

MPAA: R - Лицам до 17 лет обязательно присутствие взрослого-Качество: BDRip-AVC 60fps
Формат: MKV
Видео: AVC, 1024x432 (2.35:1), 3450 kbps, 59,940 fps, 0,130 bpp
Аудио: русский / AC3 / 5.1 / 48 kHz / 448 kbps / 16 bit
Навигация по главам: есть- -

ОтчетМедиаИнфо

General
Unique ID : 205910361194496808539965786685213771653 (0x9AE8E49ED2070CA5B48605E7A5840785)
Format : Matroska
Format version : Version 4 / Version 2
File size : 3.95 GiB
Duration : 2h 24mn
Overall bit rate : 3 902 Kbps
Movie name : Tiberiumsun69
Encoded date : UTC 2015-11-14 09:21:16
Writing application : mkvmerge v8.3.0 ('Over the Horizon') 64bit
Writing library : libebml v1.3.1 + libmatroska v1.4.2
Attachment : Yes
Video
ID : 1
Format : AVC
Format/Info : Advanced Video Codec
Format profile : High@L4.1
Format settings, CABAC : Yes
Format settings, ReFrames : 4 frames
Codec ID : V_MPEG4/ISO/AVC
Duration : 2h 24mn
Bit rate : 3 450 Kbps
Width : 1 024 pixels
Height : 432 pixels
Display aspect ratio : 2.35:1
Frame rate : 59.940 fps
Color space : YUV
Chroma subsampling : 4:2:0
Bit depth : 8 bits
Scan type : Progressive
Bits/(Pixel*Frame) : 0.130
Stream size : 3.42 GiB (87%)
Title : Tiberiumsun69
Writing library : x264 core 146 r2538 121396c
Encoding settings : cabac=1 / ref=3 / deblock=1:0:0 / analyse=0x3:0x113 / me=umh / subme=9 / psy=1 / psy_rd=1.00:0.10 / mixed_ref=1 / me_range=32 / chroma_me=1 / trellis=2 / 8x8dct=1 / cqm=0 / deadzone=21,11 / fast_pskip=0 / chroma_qp_offset=-3 / threads=12 / lookahead_threads=3 / sliced_threads=0 / nr=0 / decimate=1 / interlaced=0 / bluray_compat=0 / constrained_intra=0 / bframes=16 / b_pyramid=2 / b_adapt=2 / b_bias=0 / direct=3 / weightb=1 / open_gop=0 / weightp=2 / keyint=600 / keyint_min=59 / scenecut=40 / intra_refresh=0 / rc_lookahead=40 / rc=2pass / mbtree=0 / bitrate=3450 / ratetol=1.0 / qcomp=0.60 / qpmin=0 / qpmax=69 / qpstep=4 / cplxblur=20.0 / qblur=0.5 / vbv_maxrate=14000 / vbv_bufsize=14000 / nal_hrd=none / filler=0 / ip_ratio=1.40 / pb_ratio=1.30 / aq=1:1.00
Language : English
Default : Yes
Forced : No
Audio
ID : 2
Format : AC-3
Format/Info : Audio Coding 3
Mode extension : CM (complete main)
Codec ID : A_AC3
Duration : 2h 24mn
Bit rate mode : Constant
Bit rate : 448 Kbps
Channel(s) : 6 channels
Channel positions : Front: L C R, Side: L R, LFE
Sampling rate : 48.0 KHz
Bit depth : 16 bits
Compression mode : Lossy
Stream size : 464 MiB (11%)
Title : Дубляж
Language : Russian
Default : Yes
Forced : No
Text #1
ID : 3
Format : UTF-8
Codec ID : S_TEXT/UTF8
Codec ID/Info : UTF-8 Plain Text
Title : Полные
Language : Russian
Default : No
Forced : No
Text #2
ID : 4
Format : UTF-8
Codec ID : S_TEXT/UTF8
Codec ID/Info : UTF-8 Plain Text
Title : Полные
Language : English
Default : No
Forced : No
Menu
00:00:00.000 : en:00:00:00.000
00:03:42.973 : en:00:03:42.973
00:04:31.480 : en:00:04:31.480
00:09:29.694 : en:00:09:29.694
00:12:13.399 : en:00:12:13.399
00:15:01.442 : en:00:15:01.442
00:16:33.701 : en:00:16:33.701
00:24:27.925 : en:00:24:27.925
00:26:31.757 : en:00:26:31.757
00:31:07.741 : en:00:31:07.741
00:33:12.824 : en:00:33:12.824
00:35:53.151 : en:00:35:53.151
00:37:43.261 : en:00:37:43.261
00:43:32.735 : en:00:43:32.735
00:46:11.268 : en:00:46:11.268
00:49:15.286 : en:00:49:15.286
00:51:46.812 : en:00:51:46.812
00:55:52.057 : en:00:55:52.057
00:59:33.320 : en:00:59:33.320
01:02:51.434 : en:01:02:51.434
01:07:33.257 : en:01:07:33.257
01:11:03.634 : en:01:11:03.634
01:14:12.823 : en:01:14:12.823
01:17:08.874 : en:01:17:08.874
01:19:05.699 : en:01:19:05.699
01:24:41.034 : en:01:24:41.034
01:26:19.507 : en:01:26:19.507
01:28:02.861 : en:01:28:02.861
01:29:09.928 : en:01:29:09.928
01:34:12.772 : en:01:34:12.772
01:37:18.708 : en:01:37:18.708
01:39:29.255 : en:01:39:29.255
01:42:47.453 : en:01:42:47.453
01:46:07.444 : en:01:46:07.444
01:49:57.716 : en:01:49:57.716
01:54:04.796 : en:01:54:04.796
01:56:30.024 : en:01:56:30.024
01:58:32.897 : en:01:58:32.897
02:05:23.808 : en:02:05:23.808
02:08:09.181 : en:02:08:09.181
02:10:50.175 : en:02:10:50.175
02:12:42.913 : en:02:12:42.913
02:16:18.462 : en:02:16:18.462
02:19:09.966 : en:02:19:09.966

Скриншоты

Чужой 4: Воскрешение (Director's Cut)

-Название: Чужой 4: Воскрешение
Оригинальное название: Alien: Resurrection
Год выпуска: 1997
Страна: США
Жанр: ужасы, фантастика, боевик, триллер
Продолжительность: 01:56:08
Перевод: Дубляж - [Лицензия]
Субтитры: русские (Полные), английские (Полные)-Режиссер: Жан-Пьер Жёне-В ролях: Сигурни Уивер (Ellen Ripley), Вайнона Райдер (Annalee Call), Доминик Пинон (Vriess), Рон Перлман (Johner), Гари Дурдан (Christie), Майкл Уинкотт (Frank Elgyn), Дж.Э. Фримен (Dr. Mason Wren), Лиленд Орсер (Larry Purvis), Брэд Дуриф (Dr. Jonathan Gediman), Дэн Хедайя (Gen. Martin Perez), Ким Флауэрс (Sabra Hillard), Рэймонд Крус (Vincent Distephano)-Описание:
Спустя двести лет после событий, произошедших на планете-тюрьме, группа ученых, опекаемых военным командованием, клонирует Эллен Рипли, чтобы с ее помощью заполучить детеныша инопланетного монстра. Вскоре он уже сам начинает плодиться, производя на свет новую породу - помесь кровожадного пришельца и... человека.-Рейтинг:

MPAA: R - Лицам до 17 лет обязательно присутствие взрослого-Качество: BDRip-AVC 60fps
Формат: MKV
Видео: AVC, 1024x440 (2.35:1), 4000 kbps, 59,940 fps, 0,148 bpp
Аудио: русский / AC3 / 5.1 / 48 kHz / 640 kbps / 16 bit
Навигация по главам: есть- -

ОтчетМедиаИнфо

General
Unique ID : 207835357055084830138741597494315485336 (0x9C5BA23E745A4AB1B8D6B5A5E1A68898)
Format : Matroska
Format version : Version 4 / Version 2
File size : 3.76 GiB
Duration : 1h 56mn
Overall bit rate : 4 640 Kbps
Movie name : Tiberiumsun69
Encoded date : UTC 2015-11-14 09:28:04
Writing application : mkvmerge v8.3.0 ('Over the Horizon') 64bit
Writing library : libebml v1.3.1 + libmatroska v1.4.2
Attachment : Yes
Video
ID : 1
Format : AVC
Format/Info : Advanced Video Codec
Format profile : High@L4.1
Format settings, CABAC : Yes
Format settings, ReFrames : 4 frames
Codec ID : V_MPEG4/ISO/AVC
Duration : 1h 56mn
Bit rate : 4 000 Kbps
Width : 1 024 pixels
Height : 440 pixels
Display aspect ratio : 2.35:1
Frame rate : 59.940 fps
Color space : YUV
Chroma subsampling : 4:2:0
Bit depth : 8 bits
Scan type : Progressive
Bits/(Pixel*Frame) : 0.148
Stream size : 3.17 GiB (84%)
Title : Tiberiumsun69
Writing library : x264 core 146 r2538 121396c
Encoding settings : cabac=1 / ref=3 / deblock=1:0:0 / analyse=0x3:0x113 / me=umh / subme=9 / psy=1 / psy_rd=1.00:0.10 / mixed_ref=1 / me_range=32 / chroma_me=1 / trellis=2 / 8x8dct=1 / cqm=0 / deadzone=21,11 / fast_pskip=0 / chroma_qp_offset=-3 / threads=12 / lookahead_threads=3 / sliced_threads=0 / nr=0 / decimate=1 / interlaced=0 / bluray_compat=0 / constrained_intra=0 / bframes=16 / b_pyramid=2 / b_adapt=2 / b_bias=0 / direct=3 / weightb=1 / open_gop=0 / weightp=2 / keyint=600 / keyint_min=59 / scenecut=40 / intra_refresh=0 / rc_lookahead=40 / rc=2pass / mbtree=0 / bitrate=4000 / ratetol=1.0 / qcomp=0.60 / qpmin=0 / qpmax=69 / qpstep=4 / cplxblur=20.0 / qblur=0.5 / vbv_maxrate=14000 / vbv_bufsize=14000 / nal_hrd=none / filler=0 / ip_ratio=1.40 / pb_ratio=1.30 / aq=1:1.00
Language : English
Default : Yes
Forced : No
Audio
ID : 2
Format : AC-3
Format/Info : Audio Coding 3
Mode extension : CM (complete main)
Codec ID : A_AC3
Duration : 1h 56mn
Bit rate mode : Constant
Bit rate : 640 Kbps
Channel(s) : 6 channels
Channel positions : Front: L C R, Side: L R, LFE
Sampling rate : 48.0 KHz
Bit depth : 16 bits
Compression mode : Lossy
Stream size : 532 MiB (14%)
Title : Дубляж
Language : Russian
Default : Yes
Forced : No
Text #1
ID : 3
Format : UTF-8
Codec ID : S_TEXT/UTF8
Codec ID/Info : UTF-8 Plain Text
Title : Полные
Language : Russian
Default : No
Forced : No
Text #2
ID : 4
Format : UTF-8
Codec ID : S_TEXT/UTF8
Codec ID/Info : UTF-8 Plain Text
Title : Полные
Language : English
Default : No
Forced : No
Menu
00:00:00.000 : en:00:00:00.000
00:03:27.332 : en:00:03:27.332
00:04:26.308 : en:00:04:26.308
00:06:30.140 : en:00:06:30.140
00:08:49.279 : en:00:08:49.279
00:12:06.225 : en:00:12:06.225
00:15:03.528 : en:00:15:03.528
00:19:25.539 : en:00:19:25.539
00:21:37.838 : en:00:21:37.838
00:24:12.868 : en:00:24:12.868
00:26:19.995 : en:00:26:19.995
00:30:08.765 : en:00:30:08.765
00:32:19.563 : en:00:32:19.563
00:37:16.693 : en:00:37:16.693
00:39:26.739 : en:00:39:26.739
00:42:36.679 : en:00:42:36.679
00:46:30.663 : en:00:46:30.663
00:49:20.791 : en:00:49:20.791
00:53:35.379 : en:00:53:35.379
00:57:04.963 : en:00:57:04.963
01:03:01.653 : en:01:03:01.653
01:07:40.431 : en:01:07:40.431
01:19:37.147 : en:01:19:37.147
01:22:07.297 : en:01:22:07.297
01:28:21.421 : en:01:28:21.421
01:31:45.917 : en:01:31:45.917
01:34:15.525 : en:01:34:15.525
01:38:58.391 : en:01:38:58.391
01:40:45.539 : en:01:40:45.539
01:43:49.849 : en:01:43:49.849
01:47:52.299 : en:01:47:52.299
01:49:51.418 : en:01:49:51.418

Скриншоты

[Цитировать]
smith

Спасибо! Улыбаюсь

[Цитировать]
RogerJunior

Ярый поклонник "Чужих" и "Хищников",однозначно в коллекцию забираю! 10 баллов из 10! Привет
 
Показать сообщения:    

Текущее время: 09-Дек 22:19

Часовой пояс: UTC + 3


Вы не можете начинать темы
Вы не можете отвечать на сообщения
Вы не можете редактировать свои сообщения
Вы не можете удалять свои сообщения
Вы не можете голосовать в опросах
Вы не можете прикреплять файлы к сообщениям
Вы не можете скачивать файлы