Властелин колец: Трилогия / The Lord of the Rings: Trilogy (2001-2003) BDRip-AVC | Extended Cut | 60 fps Принц Персии: Пески времени / Prince of Persia: The Sands of Time (2010) BDRip 1080p | 60 fps К звёздам / Ad Astra (2019) BDRip 1080p | 60 fps Достать ножи / Knives Out (2019) BDRip 1080p | 60 fps День, когда Земля остановилась / The Day the Earth Stood Still (2008) BDRip 1080p | 60 fps Удивительное путешествие доктора Дулиттла / Dolittle (2020) BDRip 1080p | 60 fps Однажды в… Голливуде / Once Upon a Time... in Hollywood (2019) BDRip 1080p | 60 fps Паразиты / Gisaengchung (2019) BDRip 1080p | 60 fps
  1. bot

    Longevity:
    5 years 11 months
    Posts:
    410
    Gender:
    Unknown
    «Every dream begins with a single step»- Информация
    Название: Прогулка
    Оригинальное название: The Walk
    Год выхода: 2015
    Жанр: Триллер, драма, приключения, биография
    Режиссер: Роберт Земекис
    Сценарий: Роберт Земекис, Кристофер Браун, Филипп Пети
    Продюсер: Джек Рэпк, Том Ротман, Стив Старки
    В ролях: Джозеф Гордон-Левитт, Бен Кингсли, Стив Валентайн, Шарлотта Ле Бон, Джеймс Бэдж Дэйл, Бен Шварц, Бенедикт Сэмюэл, Мизинга Мвинга, Дэниэл Аррош, Джейсон Делайн
    --Сюжет:
    Вы боитесь высоты? А можете представить себя идущим по натянутому канату на высоте более 400м без всякой страховки? Потоки ветра обдувают вас, а внизу — город и тысячи взволнованных взглядов, устремленных вверх.
    История о том, как французский канатоходец Филипп Пети отважился совершить легендарный трюк — пройти без страховки по канату, натянутому между небоскребами в Нью-Йорке.
    - - Страна: США
    Продолжительность: 02:03:11

    Файл
    Кодек: MPEG4/ISO/AVC H.264
    Формат: MKV
    Качество: BDRip-AVC | 60 fps
    Видео: 1024x424 (2.40:1) | 59.940 fps | 3.8 Мбит/сек
    Аудио: AC3 | 5.1 | 48 kHz | 640 kbps | 16 bit | Дубляж |
    Субтитры: Russian, English

    MedifInfo

    Video
    ID : 1
    Format : AVC
    Format/Info : Advanced Video Codec
    Format profile : High@L4.1
    Format settings, CABAC : Yes
    Format settings, ReFrames : 4 frames
    Codec ID : V_MPEG4/ISO/AVC
    Duration : 2h 3mn
    Bit rate : 3 810 Kbps
    Width : 1 024 pixels
    Height : 424 pixels
    Display aspect ratio : 2.40:1
    Frame rate : 59.940 fps
    Color space : YUV
    Chroma subsampling : 4:2:0
    Bit depth : 8 bits
    Scan type : Progressive
    Bits/(Pixel*Frame) : 0.146
    Stream size : 3.21 GiB (84%)
    Writing library : x264 core 146 r2538 121396c
    Encoding settings : cabac=1 / ref=3 / deblock=1:0:0 / analyse=0x3:0x113 / me=umh / subme=9 / psy=1 / psy_rd=1.00:0.10 / mixed_ref=1 / me_range=32 / chroma_me=1 / trellis=2 / 8x8dct=1 / cqm=0 / deadzone=21,11 / fast_pskip=0 / chroma_qp_offset=-3 / threads=12 / lookahead_threads=3 / sliced_threads=0 / nr=0 / decimate=1 / interlaced=0 / bluray_compat=0 / constrained_intra=0 / bframes=16 / b_pyramid=2 / b_adapt=2 / b_bias=0 / direct=3 / weightb=1 / open_gop=0 / weightp=2 / keyint=250 / keyint_min=25 / scenecut=40 / intra_refresh=0 / rc_lookahead=40 / rc=2pass / mbtree=1 / bitrate=3810 / ratetol=1.0 / qcomp=0.60 / qpmin=0 / qpmax=69 / qpstep=4 / cplxblur=20.0 / qblur=0.5 / vbv_maxrate=14000 / vbv_bufsize=14000 / nal_hrd=none / filler=0 / ip_ratio=1.40 / aq=1:1.00
    Language : English
    Default : Yes
    Forced : No
    Audio
    ID : 2
    Format : AC-3
    Format/Info : Audio Coding 3
    Mode extension : CM (complete main)
    Codec ID : A_AC3
    Duration : 2h 3mn
    Bit rate mode : Constant
    Bit rate : 640 Kbps
    Channel(s) : 6 channels
    Channel positions : Front: L C R, Side: L R, LFE
    Sampling rate : 48.0 KHz
    Bit depth : 16 bits
    Compression mode : Lossy
    Stream size : 564 MiB (14%)
    Title : Дубляж
    Language : Russian
    Default : Yes
    Forced : No
    Text #1
    ID : 3
    Format : UTF-8
    Codec ID : S_TEXT/UTF8
    Codec ID/Info : UTF-8 Plain Text
    Title : Форсированные
    Language : Russian
    Default : Yes
    Forced : No
    Text #2
    ID : 4
    Format : UTF-8
    Codec ID : S_TEXT/UTF8
    Codec ID/Info : UTF-8 Plain Text
    Title : Полные
    Language : Russian
    Default : No
    Forced : No
    Text #3
    ID : 5
    Format : UTF-8
    Codec ID : S_TEXT/UTF8
    Codec ID/Info : UTF-8 Plain Text
    Title : Полные
    Language : English
    Default : No
    Forced : No
    Menu
    00:00:00.000 : en:Chapter 1
    00:05:15.773 : en:Chapter 2
    00:10:06.147 : en:Chapter 3
    00:14:51.807 : en:Chapter 4
    00:23:30.867 : en:Chapter 5
    00:32:22.148 : en:Chapter 6
    00:41:46.879 : en:Chapter 7
    00:46:32.414 : en:Chapter 8
    00:55:38.460 : en:Chapter 9
    01:04:37.373 : en:Chapter 10
    01:11:17.314 : en:Chapter 11
    01:17:40.405 : en:Chapter 12
    01:24:37.072 : en:Chapter 13
    01:33:46.746 : en:Chapter 14
    01:42:21.927 : en:Chapter 15
    01:50:29.539 : en:Chapter 16


You cannot post new topics in this forum
You cannot reply to topics in this forum
You cannot edit your posts in this forum
You cannot delete your posts in this forum
You cannot vote in polls in this forum
You cannot attach files in this forum
You cannot download files in this forum