Агент Ева / Ava (2020) BDRip 1080p | 60 fps Властелин колец: Трилогия / The Lord of the Rings: Trilogy (2001-2003) BDRip-AVC | Extended Cut | 60 fps Пятый элемент / The Fifth Element (1997) BDRip 1080p | 60 fps Форпост / The Outpost (2020) BDRip 1080p | 60 fps Поезд смерти / D-Railed (2018) BDRip 1080p | 60 fps Охота / The Hunt (2020) BDRip 1080p | 60 fps Вивариум / Vivarium (2019) BDRip 720p | 60 fps Ультрафиолет / Ultraviolet (2006) BDRip 1080p | 60 fps
  1. Longevity:
    6 years 4 months
    Posts:
    2414
    Gender:
    Male
    Профессионал / Le professionnel (1981) BDRip 720p | 60 fps- Информация
    Название: Профессионал
    Оригинальное название: Le professionnel
    Год выхода: 1981
    Жанр: Боевик, Триллер, Драма, Криминал
    Режиссер: Жорж Лотнер
    Сценарий: Жак Одиар, Мишель Одиар, Жорж Лотнер
    Продюсер: Ален Бельмондо, Жан-Поль Бельмондо, Жорж Дансижер
    В ролях: Жан-Поль Бельмондо, Жан Дезайи, Робер Оссейн, Мишель Бон, Сирил Клер, Жан-Луи Ришар, Сидики Бакаба, Пьер Сентон, Мари-Кристин Декуар, Бернар-Пьер Доннадьё
    -Сюжет:
    Убить президента африканской республики. Такое задание получил секретный агент Жослен Бомон. Внезапно политика изменилась, и французское правительство сдает героя африканским властям. Сбежав с каторги, волк-одиночка возвращается на родину с одной целью: довести задание до конца. А чернокожий лидер как раз приезжает во Францию.- Страна: Франция
    Продолжительность: 01:47:53

    Файл
    Кодек: MPEG4/ISO/AVC/H.264
    Формат: MKV
    Качество: BDRip 720p | 60 fps
    Видео: 1202 x 720 (1.669) | 60.000 fps | 10.0 Мбит/сек
    Аудио 01: AC3 | 2.0 | 48 kHz | 192 kbps | 16 bit | MVO, НТВ, Караченцов |
    Аудио 02: AC3 | 2.0 | 48 kHz | 256 kbps | 16 bit | DUB, Мосфильм 1990 |
    Аудио 03: AC3 | 2.0 | 48 kHz | 192 kbps | 16 bit | MVO, к.ст им. Горького, 1987 |
    Аудио 04: AC3 | 2.0 | 48 kHz | 192 kbps | 16 bit | MVO, Неоклассика |
    Аудио 05: AC3 | 2.0 | 48 kHz | 192 kbps | 16 bit | MVO, Тивионика |
    Аудио 06: AC3 | 2.0 | 48 kHz | 256 kbps | 16 bit | DUB, ОРТ, Selena International |
    Аудио 07: AC3 | 2.0 | 48 kHz | 256 kbps | 16 bit | MVO, ТВ Центр |
    Аудио 08: AC3 | 2.0 | 48 kHz | 192 kbps | 16 bit | AVO, Л.Володарский |
    Аудио 09: AC3 | 2.0 | 48 kHz | 192 kbps | 16 bit | AVO, П.Прямостанов |
    Аудио 10: AC3 | 2.0 | 48 kHz | 192 kbps | 16 bit | AVO, С.Кузнецов |
    Аудио 11: AC3 | 2.0 | 48 kHz | 224 kbps | 16 bit | Французский |
    Субтитры: Русские

    MedifInfo

    Видео
    Идентификатор : 1
    Формат : AVC
    Формат/Информация : Advanced Video Codec
    Профиль формата : [email protected]
    Параметр CABAC формата : Да
    Параметр ReFrames формата : 3 кадра
    Параметр GOP формата : M=3, N=72
    Идентификатор кодека : V_MPEG4/ISO/AVC
    Продолжительность : 1 ч. 47 м.
    Вид битрейта : Переменный
    Битрейт : 9734 Кбит/сек
    Максимальный битрейт : 10000 Кбит/сек
    Ширина : 1202 пикселя
    Высота : 720 пикселей
    Соотношение сторон : 1,669
    Режим частоты кадров : Постоянный
    Частота кадров : 60,000 кадров/сек
    Стандарт вещания : PAL
    Цветовое пространство : YUV
    Субдискретизация насыщенности : 4:2:0
    Битовая глубина : 8 бит
    Тип развёртки : Прогрессивная
    Бит/(Пиксели*Кадры) : 0.187
    Размер потока : 7,34 Гбайт (79%)
    Заголовок : www.60-fps.org
    Язык : English
    Default : Да
    Forced : Нет
    Основные цвета : BT.709
    Характеристики трансфера : BT.709
    Коэффициенты матрицы : BT.709
    colour_range : Limited
    Аудио #1
    Идентификатор : 2
    Формат : AC-3
    Формат/Информация : Audio Coding 3
    Расширение режима : CM (complete main)
    Параметр Endianness формата : Big
    Идентификатор кодека : A_AC3
    Продолжительность : 1 ч. 47 м.
    Вид битрейта : Постоянный
    Битрейт : 192 Кбит/сек
    Каналы : 2 канала
    Расположение каналов : Front: L R
    Частота : 48,0 КГц
    Битовая глубина : 16 бит
    Метод сжатия : С потерями
    Размер потока : 148 Мбайт (2%)
    Заголовок : AC3 2.0ch 192 kbps - Многоголосый, НТВ
    Язык : Russian
    Default : Да
    Forced : Нет
    Аудио #2
    Идентификатор : 3
    Формат : AC-3
    Формат/Информация : Audio Coding 3
    Расширение режима : CM (complete main)
    Параметр Endianness формата : Big
    Идентификатор кодека : A_AC3
    Продолжительность : 1 ч. 47 м.
    Вид битрейта : Постоянный
    Битрейт : 192 Кбит/сек
    Каналы : 2 канала
    Расположение каналов : Front: L R
    Частота : 48,0 КГц
    Битовая глубина : 16 бит
    Метод сжатия : С потерями
    Размер потока : 148 Мбайт (2%)
    Заголовок : AC3 2.0ch 192 kbps - Многоголосый, к.ст им.Горького
    Язык : Russian
    Default : Нет
    Forced : Нет
    Аудио #3
    Идентификатор : 4
    Формат : AC-3
    Формат/Информация : Audio Coding 3
    Расширение режима : CM (complete main)
    Параметр Endianness формата : Big
    Идентификатор кодека : A_AC3
    Продолжительность : 1 ч. 47 м.
    Вид битрейта : Постоянный
    Битрейт : 256 Кбит/сек
    Каналы : 2 канала
    Расположение каналов : Front: L R
    Частота : 48,0 КГц
    Битовая глубина : 16 бит
    Метод сжатия : С потерями
    Размер потока : 198 Мбайт (2%)
    Заголовок : AC3 2.0ch 256 kbps - Дубляж, Мосфильм
    Язык : Russian
    Default : Нет
    Forced : Нет
    Аудио #4
    Идентификатор : 5
    Формат : AC-3
    Формат/Информация : Audio Coding 3
    Расширение режима : CM (complete main)
    Параметр Endianness формата : Big
    Идентификатор кодека : A_AC3
    Продолжительность : 1 ч. 47 м.
    Вид битрейта : Постоянный
    Битрейт : 192 Кбит/сек
    Каналы : 2 канала
    Расположение каналов : Front: L R
    Частота : 48,0 КГц
    Битовая глубина : 16 бит
    Метод сжатия : С потерями
    Размер потока : 148 Мбайт (2%)
    Заголовок : AC3 2.0ch 192 kbps - Многоголосый, Неоклассика
    Язык : Russian
    Default : Нет
    Forced : Нет
    Аудио #5
    Идентификатор : 6
    Формат : AC-3
    Формат/Информация : Audio Coding 3
    Расширение режима : CM (complete main)
    Параметр Endianness формата : Big
    Идентификатор кодека : A_AC3
    Продолжительность : 1 ч. 47 м.
    Вид битрейта : Постоянный
    Битрейт : 192 Кбит/сек
    Каналы : 2 канала
    Расположение каналов : Front: L R
    Частота : 48,0 КГц
    Битовая глубина : 16 бит
    Метод сжатия : С потерями
    Размер потока : 148 Мбайт (2%)
    Заголовок : AC3 2.0ch 192 kbps - Многоголосый, Тивионика
    Язык : Russian
    Default : Нет
    Forced : Нет
    Аудио #6
    Идентификатор : 7
    Формат : AC-3
    Формат/Информация : Audio Coding 3
    Расширение режима : CM (complete main)
    Параметр Endianness формата : Big
    Идентификатор кодека : A_AC3
    Продолжительность : 1 ч. 47 м.
    Вид битрейта : Постоянный
    Битрейт : 192 Кбит/сек
    Каналы : 2 канала
    Расположение каналов : Front: L R
    Частота : 48,0 КГц
    Битовая глубина : 16 бит
    Метод сжатия : С потерями
    Размер потока : 148 Мбайт (2%)
    Заголовок : AC3 2.0ch 256 kbps - Многоголосый, ОРТ, Selena International
    Язык : Russian
    Default : Нет
    Forced : Нет
    Аудио #7
    Идентификатор : 8
    Формат : AC-3
    Формат/Информация : Audio Coding 3
    Расширение режима : CM (complete main)
    Параметр Endianness формата : Big
    Идентификатор кодека : A_AC3
    Продолжительность : 1 ч. 47 м.
    Вид битрейта : Постоянный
    Битрейт : 192 Кбит/сек
    Каналы : 2 канала
    Расположение каналов : Front: L R
    Частота : 48,0 КГц
    Битовая глубина : 16 бит
    Метод сжатия : С потерями
    Размер потока : 148 Мбайт (2%)
    Заголовок : AC3 2.0ch 256 kbps - Многоголосый, ТВ Центр
    Язык : Russian
    Default : Нет
    Forced : Нет
    Аудио #8
    Идентификатор : 9
    Формат : AC-3
    Формат/Информация : Audio Coding 3
    Расширение режима : CM (complete main)
    Параметр Endianness формата : Big
    Идентификатор кодека : A_AC3
    Продолжительность : 1 ч. 47 м.
    Вид битрейта : Постоянный
    Битрейт : 192 Кбит/сек
    Каналы : 2 канала
    Расположение каналов : Front: L R
    Частота : 48,0 КГц
    Битовая глубина : 16 бит
    Метод сжатия : С потерями
    Размер потока : 148 Мбайт (2%)
    Заголовок : AC3 2.0ch 192 kbps - Одноголосый, Л. Володарский
    Язык : Russian
    Default : Нет
    Forced : Нет
    Аудио #9
    Идентификатор : 10
    Формат : AC-3
    Формат/Информация : Audio Coding 3
    Расширение режима : CM (complete main)
    Параметр Endianness формата : Big
    Идентификатор кодека : A_AC3
    Продолжительность : 1 ч. 47 м.
    Вид битрейта : Постоянный
    Битрейт : 192 Кбит/сек
    Каналы : 2 канала
    Расположение каналов : Front: L R
    Частота : 48,0 КГц
    Битовая глубина : 16 бит
    Метод сжатия : С потерями
    Размер потока : 148 Мбайт (2%)
    Заголовок : AC3 2.0ch 192 kbps - Одноголосый, П. Прямостанов
    Язык : Russian
    Default : Нет
    Forced : Нет
    Аудио #10
    Идентификатор : 11
    Формат : AC-3
    Формат/Информация : Audio Coding 3
    Расширение режима : CM (complete main)
    Параметр Endianness формата : Big
    Идентификатор кодека : A_AC3
    Продолжительность : 1 ч. 47 м.
    Вид битрейта : Постоянный
    Битрейт : 256 Кбит/сек
    Каналы : 2 канала
    Расположение каналов : Front: L R
    Частота : 48,0 КГц
    Битовая глубина : 16 бит
    Метод сжатия : С потерями
    Размер потока : 198 Мбайт (2%)
    Заголовок : AC3 2.0ch 256 kbps - Одноголосый, С. Кузнецов
    Язык : Russian
    Default : Нет
    Forced : Нет
    Аудио #11
    Идентификатор : 12
    Формат : AC-3
    Формат/Информация : Audio Coding 3
    Расширение режима : CM (complete main)
    Параметр Endianness формата : Big
    Идентификатор кодека : A_AC3
    Продолжительность : 1 ч. 47 м.
    Вид битрейта : Постоянный
    Битрейт : 224 Кбит/сек
    Каналы : 2 канала
    Расположение каналов : Front: L R
    Частота : 48,0 КГц
    Битовая глубина : 16 бит
    Метод сжатия : С потерями
    Размер потока : 173 Мбайт (2%)
    Заголовок : AC3 2.0ch 224 kbps
    Язык : French
    Default : Нет
    Forced : Нет
    Текст
    Идентификатор : 13
    Формат : UTF-8
    Идентификатор кодека : S_TEXT/UTF8
    Идентификатор кодека/Информация : UTF-8 Plain Text
    Язык : Russian
    Default : Нет
    Forced : Нет
    Меню
    00:00:00.000 : fr:Chapter 1
    00:12:39.958 : fr:Chapter 2
    00:28:55.250 : fr:Chapter 3
    00:41:54.625 : fr:Chapter 4
    00:54:46.417 : fr:Chapter 5
    01:06:59.000 : fr:Chapter 6
    01:21:16.667 : fr:Chapter 7
    01:33:52.500 : fr:Chapter 8

    Release was prepared by 60-fps.org

  2. Longevity:
    5 years 6 months
    Posts:
    149
    Gender:
    Male
    Огромное Спасибо за данный Шедевр! Овации Овации Овации
    24-Nov-2016 08:03 (after 11 hours)
  3. Longevity:
    6 years 4 months
    Posts:
    2414
    Gender:
    Male
    ENIGMA,
    Пожалуйста .
    24-Nov-2016 09:08 (after 1 hour 4 minutes)


You cannot post new topics in this forum
You cannot reply to topics in this forum
You cannot edit your posts in this forum
You cannot delete your posts in this forum
You cannot vote in polls in this forum
You cannot attach files in this forum
You cannot download files in this forum