Агент Ева / Ava (2020) BDRip 1080p | 60 fps Танго и Кэш / Tango & Cash (1989) BDRemux 1080p | 60 fps Властелин колец: Трилогия / The Lord of the Rings: Trilogy (2001-2003) BDRip-AVC | Extended Cut | 60 fps Ультрафиолет / Ultraviolet (2006) BDRip 1080p | 60 fps Вивариум / Vivarium (2019) BDRip 720p | 60 fps Девушка-невидимка / Shadow Girl (2019) BDRip 720p | 60 fps Не входи / The Owners(2020) BDRip 720p | 60 fps Достать ножи / Knives Out (2019) BDRip 1080p | 60 fps
  1. Longevity:
    6 years 7 months
    Posts:
    2414
    Gender:
    Male
    «Знакомство с родителями не всегда заканчивается свадьбой»- Информация
    Название: Прочь
    Оригинальное название: Get Out
    Год выхода: 2017
    Жанр: Ужасы, детектив
    Режиссер: Джордан Пил
    Сценарий: Джордан Пил
    Продюсер: Джейсон Блум, Жанетт Брилл, Marcei A. Brown
    В ролях: Дэниэл Калуя, Эллисон Уильямс, Кэтрин Кинер, Брэдли Уитфорд, Калеб Лэндри Джонс, Маркус Хендерсон, Бетти Гэбриел, Лейкит Стэнфилд, Стивен Рут, Лил Релл
    --Сюжет:
    Знакомство с родителями подружки не предвещает молодому фотографу из Нью-Йорка ничего хорошего, ведь семья девушки принадлежит к элитному обществу и живет в уединенном загородном доме. Если бы он только знал истинную причину своего приглашения, то немедленно бросился бы прочь…
    - Страна: США
    Продолжительность: 01:45:05

    Файл
    Кодек: MPEG4/ISO/AVC/H.264
    Формат: MKV
    Качество: BDRip 1080p | 60 fps
    Видео: 1920 x 800 (2.400) | 59.940 fps | 21.0 Мбит/сек
    Аудио 1: AC3 | 5.1 | 48 kHz | 640 kbps | 16 bit | Профессиональный многоголосый - AlexFilm |
    Аудио 2: AC3 | 5.1 | 48 kHz | 640 kbps | 16 bit | Eng |
    Субтитры: Русские, английские

    MedifInfo

    Видео
    Идентификатор : 1
    Формат : AVC
    Формат/Информация : Advanced Video Codec
    Профиль формата : [email protected]
    Параметр CABAC формата : Да
    Параметр ReFrames формата : 5 кадров
    Идентификатор кодека : V_MPEG4/ISO/AVC
    Продолжительность : 1 ч. 44 м.
    Битрейт : 21,0 Мбит/сек
    Ширина : 1920 пикселей
    Высота : 800 пикселей
    Соотношение сторон : 2,40:1
    Режим частоты кадров : Постоянный
    Частота кадров : 59,880 кадров/сек
    Частота кадров в оригинале : 59,940 кадров/сек
    Цветовое пространство : YUV
    Субдискретизация насыщенности : 4:2:0
    Битовая глубина : 8 бит
    Тип развёртки : Прогрессивная
    Бит/(Пиксели*Кадры) : 0.228
    Размер потока : 14,9 Гбайт (92%)
    Заголовок : www.60-fps.org
    Библиотека кодирования : x264 core 148 r2638 7599210
    Настройки программы : cabac=1 / ref=5 / deblock=1:-3:-3 / analyse=0x3:0x113 / me=umh / subme=8 / psy=1 / psy_rd=1.00:0.25 / mixed_ref=1 / me_range=32 / chroma_me=1 / trellis=1 / 8x8dct=1 / cqm=0 / deadzone=6,6 / fast_pskip=1 / chroma_qp_offset=-4 / threads=12 / lookahead_threads=2 / sliced_threads=0 / nr=0 / decimate=0 / interlaced=0 / bluray_compat=0 / constrained_intra=0 / bframes=3 / b_pyramid=2 / b_adapt=2 / b_bias=0 / direct=3 / weightb=1 / open_gop=0 / weightp=2 / keyint=599 / keyint_min=59 / scenecut=40 / intra_refresh=0 / rc_lookahead=50 / rc=2pass / mbtree=1 / bitrate=20999 / ratetol=1.0 / qcomp=0.80 / qpmin=0 / qpmax=69 / qpstep=4 / cplxblur=20.0 / qblur=0.5 / vbv_maxrate=62500 / vbv_bufsize=78125 / nal_hrd=none / filler=0 / ip_ratio=1.10 / aq=1:0.50
    Default : Да
    Forced : Нет
    Аудио #1
    Идентификатор : 2
    Формат : AC-3
    Формат/Информация : Audio Coding 3
    Расширение режима : CM (complete main)
    Параметр Endianness формата : Big
    Идентификатор кодека : A_AC3
    Продолжительность : 1 ч. 44 м.
    Вид битрейта : Постоянный
    Битрейт : 640 Кбит/сек
    Каналы : 6 каналов
    Расположение каналов : Front: L C R, Side: L R, LFE
    Частота : 48,0 КГц
    Битовая глубина : 16 бит
    Метод сжатия : С потерями
    Размер потока : 476 Мбайт (3%)
    Заголовок : Профессиональный многоголосый - AlexFilm
    Язык : Russian
    Default : Нет
    Forced : Нет
    Аудио #2
    Идентификатор : 3
    Формат : AC-3
    Формат/Информация : Audio Coding 3
    Расширение режима : CM (complete main)
    Параметр Endianness формата : Big
    Идентификатор кодека : A_AC3
    Продолжительность : 1 ч. 44 м.
    Вид битрейта : Постоянный
    Битрейт : 640 Кбит/сек
    Каналы : 6 каналов
    Расположение каналов : Front: L C R, Side: L R, LFE
    Частота : 48,0 КГц
    Битовая глубина : 16 бит
    Метод сжатия : С потерями
    Размер потока : 476 Мбайт (3%)
    Заголовок : English
    Язык : English
    Default : Да
    Forced : Нет
    Текст #1
    Идентификатор : 4
    Формат : UTF-8
    Идентификатор кодека : S_TEXT/UTF8
    Идентификатор кодека/Информация : UTF-8 Plain Text
    Заголовок : Full
    Язык : Russian
    Default : Нет
    Forced : Нет
    Текст #2
    Идентификатор : 5
    Формат : UTF-8
    Идентификатор кодека : S_TEXT/UTF8
    Идентификатор кодека/Информация : UTF-8 Plain Text
    Заголовок : Full
    Язык : English
    Default : Нет
    Forced : Нет
    Меню
    00:00:00.000 : en:00:00:00.000
    00:04:52.834 : en:00:04:52.834
    00:10:13.530 : en:00:10:13.530
    00:14:02.258 : en:00:14:02.258
    00:19:07.480 : en:00:19:07.480
    00:21:49.433 : en:00:21:49.433
    00:26:07.357 : en:00:26:07.357
    00:30:51.016 : en:00:30:51.016
    00:37:19.487 : en:00:37:19.487
    00:42:16.868 : en:00:42:16.868
    00:48:03.172 : en:00:48:03.172
    00:54:13.584 : en:00:54:13.584
    00:57:38.288 : en:00:57:38.288
    01:03:33.810 : en:01:03:33.810
    01:10:48.911 : en:01:10:48.911
    01:15:36.365 : en:01:15:36.365
    01:22:02.543 : en:01:22:02.543
    01:26:13.418 : en:01:26:13.418
    01:32:24.414 : en:01:32:24.414
    01:40:22.391 : en:01:40:22.391

    Release was prepared by 60-fps.org

  2. Longevity:
    4 years 8 months
    Posts:
    1586
    Gender:
    Male
    ооо,крутяшный фильмец,хочу быстрее глянуть... Хитренький
    15-May-2017 18:57 (after 1 day 12 hours)
  3. Longevity:
    4 years 3 months
    Posts:
    6
    Gender:
    Unknown
    отличное кино,любители сериала Черное Зеркало оценят.
    05-Jul-2017 06:47 (after 1 month 20 days)


You cannot post new topics in this forum
You cannot reply to topics in this forum
You cannot edit your posts in this forum
You cannot delete your posts in this forum
You cannot vote in polls in this forum
You cannot attach files in this forum
You cannot download files in this forum