[Цитировать]
Гость

Призрак в доспехах (1995)

-Название: Призрак в доспехах
Оригинальное название: Koukaku Kidoutai
Год выпуска: 1995
Страна: Япония
Жанр: аниме, мультфильм, фантастика, фэнтези, боевик, триллер
Продолжительность: 01:22:52
Перевод: Дубляж
Субтитры: русские (Полные)-Режиссер: Мамору Осии / Mamoru Oshii-В ролях: Акио Ютсука (Bateau, озвучка), Ацуко Танака (Major Motoko Kusanagi, озвучка), Иэмаса Каюми (Project 2501 aka 'The Puppet Master', озвучка), Коити Ямадера (Togusa, озвучка), Тамио Оки (Section 9 Department Chief Aramaki (JPN), озвучка), Стивен Апостолина (дополнительные голоса, озвучка), Стивен Блум (дополнительные голоса, озвучка), Стив Бьюлен (Section 9 Staff Cyberneticist / Coroner, озвучка), Тони Бурк (дополнительные голоса, озвучка), Ричард Кансино (Diplomat, озвучка), Том Карлтон (Garbage Collector A, озвучка), Джордж Селик (Old Man, озвучка)-Описание:
2029 год. Границы между государствами окончательно рухнули, благодаря повсеместно распространившимся компьютерным сетям и кибер-технологиям. Когда давно разыскиваемый хакер по кличке «Кукловод» начинает вмешиваться в политику, «9-й Отдел» Министерства Общественной безопасности, группа кибернетически модифицированных полицейских, получает задание найти и остановить хакера. Но в ходе расследования возникает вопрос: кто же такой «Кукловод» в том мире где грань между человеком и машиной практически стерта?..-Рейтинг
kinopoisk.ru: 8.007 (13 726)
imdb.com: 8.00 (62 487)
MPAA: R - Лицам до 17 лет обязательно присутствие взрослого-Автор рипа:Tiberiumsun69
-Качество: BDRip 1080p / 60 FPS
Формат: MKV
Видео кодек: AVC
Аудио кодек:AC3
Видео: AVC, 1920x1032 (1.860), 10000 kbps, 59,940 fps, 0,084 bpp
Аудио №1: русский / AC3 / 2.0 / 48 kHz / 640 kbps / 16 bit |Дубляж ОРТ|
Аудио №2: русский / AC3 / 2.0 / 48 kHz / 640 kbps / 16 bit |Двухголосый, закадровый Гланц и Королева|
Аудио №3: русский / AC3 / 2.0 / 48 kHz / 192 kbps / 16 bit |Двухголосый, закадровый Tycoon|
Аудио №4: японский / AC3 / 2.0 / 48 kHz / 640 kbps / 16 bit
Навигация по главам: есть- -

MI

General
Unique ID : 221369356847811289006849906182843136875 (0xA68A2FF3B2D25048844FD00D7ABDFB6B)
Complete name : A:\1080p 60fps\Призрак в доспехах 1080p 60fps\Призрак в доспехах 1995 1080p 60fps.mkv
Format : Matroska
Format version : Version 4 / Version 2
File size : 6.98 GiB
Duration : 1h 22mn
Overall bit rate : 12.1 Mbps
Movie name : R.G. HD-Films by Tiberiumsun69 60fps
Encoded date : UTC 2014-12-14 08:02:06
Writing application : mkvmerge v7.4.0 ('Circles') 64bit built on Dec 12 2014 12:19:56
Writing library : libebml v1.3.0 + libmatroska v1.4.1
Attachment : Yes
Video
ID : 1
Format : AVC
Format/Info : Advanced Video Codec
Format profile : High@L4.1
Format settings, CABAC : Yes
Format settings, ReFrames : 4 frames
Codec ID : V_MPEG4/ISO/AVC
Duration : 1h 22mn
Bit rate : 10 000 Kbps
Width : 1 920 pixels
Height : 1 032 pixels
Display aspect ratio : 1.860
Frame rate : 59.940 fps
Color space : YUV
Chroma subsampling : 4:2:0
Bit depth : 8 bits
Scan type : Progressive
Bits/(Pixel*Frame) : 0.084
Stream size : 5.62 GiB (80%)
Title : R.G. HD-Films by Tiberiumsun69 60fps
Writing library : x264 core 142 r2491 24e4fed
Encoding settings : cabac=1 / ref=4 / deblock=1:0:0 / analyse=0x3:0 / me=umh / subme=10 / psy=1 / psy_rd=0.80:0.00 / mixed_ref=1 / me_range=32 / chroma_me=0 / trellis=2 / 8x8dct=1 / cqm=0 / deadzone=21,11 / fast_pskip=1 / chroma_qp_offset=-2 / threads=12 / lookahead_threads=1 / sliced_threads=0 / nr=0 / decimate=1 / interlaced=0 / bluray_compat=0 / constrained_intra=0 / bframes=5 / b_pyramid=2 / b_adapt=2 / b_bias=0 / direct=1 / weightb=1 / open_gop=0 / weightp=2 / keyint=250 / keyint_min=59 / scenecut=40 / intra_refresh=0 / rc=2pass / mbtree=0 / bitrate=10000 / ratetol=1.0 / qcomp=0.80 / qpmin=0 / qpmax=69 / qpstep=4 / cplxblur=20.0 / qblur=0.5 / ip_ratio=1.40 / pb_ratio=1.30 / aq=1:1.00
Language : English
Default : Yes
Forced : No
Audio #1
ID : 2
Format : AC-3
Format/Info : Audio Coding 3
Mode extension : CM (complete main)
Codec ID : A_AC3
Duration : 1h 22mn
Bit rate mode : Constant
Bit rate : 640 Kbps
Channel(s) : 2 channels
Channel positions : Front: L R
Sampling rate : 48.0 KHz
Bit depth : 16 bits
Compression mode : Lossy
Stream size : 379 MiB (5%)
Title : Дубляж ОРТ
Language : Russian
Default : Yes
Forced : No
Audio #2
ID : 3
Format : AC-3
Format/Info : Audio Coding 3
Mode extension : CM (complete main)
Codec ID : A_AC3
Duration : 1h 22mn
Bit rate mode : Constant
Bit rate : 640 Kbps
Channel(s) : 2 channels
Channel positions : Front: L R
Sampling rate : 48.0 KHz
Bit depth : 16 bits
Compression mode : Lossy
Stream size : 379 MiB (5%)
Title : Двухголосый, закадровый Гланц и Королева
Language : Russian
Default : No
Forced : No
Audio #3
ID : 4
Format : AC-3
Format/Info : Audio Coding 3
Mode extension : CM (complete main)
Codec ID : A_AC3
Duration : 1h 22mn
Bit rate mode : Constant
Bit rate : 192 Kbps
Channel(s) : 2 channels
Channel positions : Front: L R
Sampling rate : 48.0 KHz
Bit depth : 16 bits
Compression mode : Lossy
Stream size : 114 MiB (2%)
Title : Двухголосый, закадровый Tycoon
Language : Russian
Default : No
Forced : No
Audio #4
ID : 5
Format : AC-3
Format/Info : Audio Coding 3
Mode extension : CM (complete main)
Codec ID : A_AC3
Duration : 1h 22mn
Bit rate mode : Constant
Bit rate : 640 Kbps
Channel(s) : 2 channels
Channel positions : Front: L R
Sampling rate : 48.0 KHz
Bit depth : 16 bits
Compression mode : Lossy
Stream size : 379 MiB (5%)
Title : Оригинал
Language : Japanese
Default : No
Forced : No
Text
ID : 6
Format : ASS
Codec ID : S_TEXT/ASS
Codec ID/Info : Advanced Sub Station Alpha
Compression mode : Lossless
Title : Полные
Language : Russian
Default : No
Forced : No
Menu
00:00:00.000 : 00:00:00.000
00:04:19.163 : 00:04:19.163
00:08:37.754 : 00:08:37.754
00:13:28.169 : 00:13:28.169
00:24:30.706 : 00:24:30.706
00:26:18.063 : 00:26:18.063
00:27:53.158 : 00:27:53.158
00:33:15.981 : 00:33:15.981
00:36:34.513 : 00:36:34.513
00:45:45.271 : 00:45:45.271
00:54:12.486 : 00:54:12.486
00:59:53.410 : 00:59:53.410
01:06:37.355 : 01:06:37.355
01:14:11.434 : 01:14:11.434
01:17:44.480 : 01:17:44.480

Скриншоты

Призрак в доспехах 2.0 (2008)

-Название: Призрак в доспехах 2.0
Оригинальное название: Koukaku Kidoutai 2.0
Год выпуска: 2008
Страна: Япония, США
Жанр: аниме, мультфильм, фантастика, боевик, драма, криминал
Продолжительность: 01:23:35
Перевод: Любительский (двухголосый)
Субтитры: русские (Полные)-Режиссер: Мамору Осии / Mamoru Oshii-В ролях: Ацуко Танака (Motoko Kusanagi, озвучка), Акио Ютсука (Batou, озвучка), Коити Ямадера (Togusa, озвучка), Тэссё Гэнда (Section 6 Department Chief Nakamura, озвучка), Масато Яманоути (Foreign Minister, озвучка), Синдзи Огава (Diplomat, озвучка), Йошико Сакакибара (The Puppet Master, озвучка), Кадзухиро Ямадзи (Garbage Collector A, озвучка), Сигэру Тиба (Garbage Collector B, озвучка), Маая Сакамото (Motoko Kusanagi (young), озвучка), Стив Бьюлен (Section 9 Staff Cyberneticist / Coroner, озвучка), Тони Бурк (дополнительные голоса, озвучка)-Описание:
К 2029 году благодаря повсеместно распространившимся компьютерным сетям и кибер-технологиям практически все люди вживили себе разнообразные нейронные имплантанты. Но кибер-технологии принесли и новую опасность для человека: стал возможным так называемый «взлом мозга» и ряд других преступлений, связанный непосредственно с ними.
Давно разыскиваемый хакер, которого прозвали Кукловодом, начинает вмешиваться в политику, и тогда «9-й Отдел» Министерства Общественной безопасности, оперотряд полиции, оснащённый по последнему слову техники, получает приказ расследовать это дело и остановить Кукловода. В погоне за ним возникает вопрос: что делает человека человеком и кто такой Кукловод в этом мире, где граница между человеком и машиной почти незаметна?-Рейтинг
kinopoisk.ru: 7.979 (3407)
imdb.com: 8.00 (6711)-Автор рипа:Tiberiumsun69
-Качество: BDRip 1080p / 60 FPS
Формат: MKV
Видео кодек: AVC
Аудио кодек:AC3
Видео: AVC, 1920x1080 (16:9), 10000 kbps, 59,940 fps, 0,080 bpp
Аудио №1: русский / AC3 / 5.1 / 48 kHz / 640 kbps / 16 bit |Двухголосый, закадровый Гланц и Королева|
Аудио №2: японский / AC3 / 5.1 / 48 kHz / 640 kbps / 16 bit
Навигация по главам: есть- -

MI

General
Unique ID : 182195344249757667394055877075501988720 (0x89118C0312184BB78D934DA0DC2A3B70)
Complete name : A:\1080p 60fps\Призрак в доспехах 1080p 60fps\Призрак в доспехах 2008 2.0 1080p 60fps.mkv
Format : Matroska
Format version : Version 4 / Version 2
File size : 6.58 GiB
Duration : 1h 23mn
Overall bit rate : 11.3 Mbps
Movie name : R.G. HD-Films by Tiberiumsun69 60fps
Encoded date : UTC 2014-12-14 08:27:35
Writing application : mkvmerge v7.4.0 ('Circles') 64bit built on Dec 12 2014 12:19:56
Writing library : libebml v1.3.0 + libmatroska v1.4.1
Attachment : Yes
Video
ID : 1
Format : AVC
Format/Info : Advanced Video Codec
Format profile : High@L4.1
Format settings, CABAC : Yes
Format settings, ReFrames : 4 frames
Codec ID : V_MPEG4/ISO/AVC
Duration : 1h 23mn
Bit rate : 10 000 Kbps
Width : 1 920 pixels
Height : 1 080 pixels
Display aspect ratio : 16:9
Frame rate : 59.940 fps
Color space : YUV
Chroma subsampling : 4:2:0
Bit depth : 8 bits
Scan type : Progressive
Bits/(Pixel*Frame) : 0.080
Stream size : 5.70 GiB (87%)
Title : R.G. HD-Films by Tiberiumsun69 60fps
Writing library : x264 core 142 r2491 24e4fed
Encoding settings : cabac=1 / ref=4 / deblock=1:0:0 / analyse=0x3:0 / me=umh / subme=10 / psy=1 / psy_rd=0.80:0.00 / mixed_ref=1 / me_range=32 / chroma_me=0 / trellis=2 / 8x8dct=1 / cqm=0 / deadzone=21,11 / fast_pskip=1 / chroma_qp_offset=-2 / threads=12 / lookahead_threads=1 / sliced_threads=0 / nr=0 / decimate=1 / interlaced=0 / bluray_compat=0 / constrained_intra=0 / bframes=5 / b_pyramid=2 / b_adapt=2 / b_bias=0 / direct=1 / weightb=1 / open_gop=0 / weightp=2 / keyint=250 / keyint_min=59 / scenecut=40 / intra_refresh=0 / rc=2pass / mbtree=0 / bitrate=10000 / ratetol=1.0 / qcomp=0.80 / qpmin=0 / qpmax=69 / qpstep=4 / cplxblur=20.0 / qblur=0.5 / ip_ratio=1.40 / pb_ratio=1.30 / aq=1:1.00
Language : English
Default : Yes
Forced : No
Audio #1
ID : 2
Format : AC-3
Format/Info : Audio Coding 3
Mode extension : CM (complete main)
Codec ID : A_AC3
Duration : 1h 23mn
Bit rate mode : Constant
Bit rate : 640 Kbps
Channel(s) : 6 channels
Channel positions : Front: L C R, Side: L R, LFE
Sampling rate : 48.0 KHz
Bit depth : 16 bits
Compression mode : Lossy
Stream size : 383 MiB (6%)
Title : Двухголосый, закадровый Гланц и Королева
Language : Russian
Default : Yes
Forced : No
Audio #2
ID : 3
Format : AC-3
Format/Info : Audio Coding 3
Mode extension : CM (complete main)
Codec ID : A_AC3
Duration : 1h 23mn
Bit rate mode : Constant
Bit rate : 640 Kbps
Channel(s) : 6 channels
Channel positions : Front: L C R, Side: L R, LFE
Sampling rate : 48.0 KHz
Bit depth : 16 bits
Compression mode : Lossy
Stream size : 383 MiB (6%)
Title : Оригинал
Language : Japanese
Default : No
Forced : No
Text
ID : 4
Format : ASS
Codec ID : S_TEXT/ASS
Codec ID/Info : Advanced Sub Station Alpha
Compression mode : Lossless
Title : Полные
Language : Russian
Default : No
Forced : No
Menu
00:00:00.000 : en:00:00:00.000
00:04:19.163 : en:00:04:19.163
00:08:37.754 : en:00:08:37.754
00:13:28.169 : en:00:13:28.169
00:24:30.706 : en:00:24:30.706
00:26:18.063 : en:00:26:18.063
00:27:53.158 : en:00:27:53.158
00:33:15.981 : en:00:33:15.981
00:36:34.513 : en:00:36:34.513
00:45:45.271 : en:00:45:45.271
00:54:12.486 : en:00:54:12.486
00:59:53.410 : en:00:59:53.410
01:06:37.355 : en:01:06:37.355
01:14:11.434 : en:01:14:11.434
01:17:44.480 : en:01:17:44.480

Скриншоты

Призрак в доспехах 2: Невинность (2004)

-Название: Призрак в доспехах 2: Невинность
Оригинальное название: Ghost in the Shell II: Innocence
Год выпуска: 2004
Страна: Япония
Жанр: аниме, мультфильм, фантастика, фэнтези, боевик, триллер, драма
Продолжительность: 01:39:18
Перевод: Профессиональный (двухголосый)
Субтитры: русские (Полные)-Режиссер: Мамору Осии / Mamoru Oshii-В ролях: Акио Ютсука (Batô, озвучка), Ацуко Танака (Major Motoko Kusanagi, озвучка), Коити Ямадера (Togusa, озвучка), Тамио Оки (Section 9 Department Chief Aramaki, озвучка), Ютака Накано (Ishikawa, озвучка), Наото Такэнака (Kim, озвучка), Гоу Аоба (озвучка), Ейсуке Асакура (озвучка), Роберт Аксельрод (Koga / Lin, озвучка), Ричард Кансино (Man / Security 1 / Wakabayashi / Yakuza 1, озвучка), Джои Д’Аурия (Kim, озвучка), Эрик Дейвис (Azuma, озвучка)-Описание:
Близкое будущее, 2032 год. Техника достигла невиданного прогресса. Это мир, который люди разделяют с киборгами и роботами. Бато - детектив отдела полиции по борьбе с терроризмом. Он - живой киборг, оснащенный искусственными руками, ногами и прочими частями тела. Остался лишь его прежний мозг да память о ней, о Мотоко Кусанаги.
Вместе с напарником Тогусой Бато привлечен к расследованию серии убийств роботами своих владельцев, причем все роботы относятся к экспериментальной модели секс-андроидов фирмы Locus Solus. Компания предпочла бы замять дело, отозвав роботов с рынка и договорившись с родственниками погибших. Но Бато и Тогуса - не из тех, с кем можно заключить полюбовную сделку.-Рейтинг
kinopoisk.ru: 7.820 (4522)
imdb.com: 7.60 (22 086)
MPAA: PG-13 - Детям до 13 лет просмотр не желателен-Автор рипа:Tiberiumsun69
-Качество: BDRip 1080p / 60 FPS
Формат: MKV
Видео кодек: AVC
Аудио кодек:AC3
Видео: AVC, 1920x1032 (1.860), 10000 kbps, 59,940 fps, 0,084 bpp
Аудио №1: русский / AC3 / 5.1 / 48 kHz / 384 kbps / 16 bit |Двухголосый, закадровый MC-Entertainment|
Аудио №2: русский / AC3 / 5.1 / 48 kHz / 640 kbps / 16 bit |Двухголосый, закадровый Гланц и Королева|
Аудио №3: японский / AC3 / 5.1 / 48 kHz / 640 kbps / 16 bit
Навигация по главам: есть- -

MI

General
Unique ID : 247951341469567991579874247657776494487 (0xBA89B0FAEB4E2F3BB51A426B23083797)
Complete name : A:\1080p 60fps\Призрак в доспехах 1080p 60fps\Призрак в доспехах невинность 1080p 60fps.mkv
Format : Matroska
Format version : Version 4 / Version 2
File size : 8.09 GiB
Duration : 1h 39mn
Overall bit rate : 11.7 Mbps
Movie name : R.G. HD-Films by Tiberiumsun69 60fps
Encoded date : UTC 2014-12-14 09:11:45
Writing application : mkvmerge v7.4.0 ('Circles') 64bit built on Dec 12 2014 12:19:56
Writing library : libebml v1.3.0 + libmatroska v1.4.1
Attachment : Yes
Video
ID : 1
Format : AVC
Format/Info : Advanced Video Codec
Format profile : High@L4.1
Format settings, CABAC : Yes
Format settings, ReFrames : 4 frames
Codec ID : V_MPEG4/ISO/AVC
Duration : 1h 39mn
Bit rate : 10 000 Kbps
Width : 1 920 pixels
Height : 1 032 pixels
Display aspect ratio : 1.860
Frame rate : 59.940 fps
Color space : YUV
Chroma subsampling : 4:2:0
Bit depth : 8 bits
Scan type : Progressive
Bits/(Pixel*Frame) : 0.084
Stream size : 6.77 GiB (84%)
Title : R.G. HD-Films by Tiberiumsun69 60fps
Writing library : x264 core 142 r2491 24e4fed
Encoding settings : cabac=1 / ref=4 / deblock=1:0:0 / analyse=0x3:0 / me=umh / subme=10 / psy=1 / psy_rd=0.80:0.00 / mixed_ref=1 / me_range=32 / chroma_me=0 / trellis=2 / 8x8dct=1 / cqm=0 / deadzone=21,11 / fast_pskip=1 / chroma_qp_offset=-2 / threads=12 / lookahead_threads=1 / sliced_threads=0 / nr=0 / decimate=1 / interlaced=0 / bluray_compat=0 / constrained_intra=0 / bframes=5 / b_pyramid=2 / b_adapt=2 / b_bias=0 / direct=1 / weightb=1 / open_gop=0 / weightp=2 / keyint=250 / keyint_min=59 / scenecut=40 / intra_refresh=0 / rc=2pass / mbtree=0 / bitrate=10000 / ratetol=1.0 / qcomp=0.80 / qpmin=0 / qpmax=69 / qpstep=4 / cplxblur=20.0 / qblur=0.5 / ip_ratio=1.40 / pb_ratio=1.30 / aq=1:1.00
Language : English
Default : Yes
Forced : No
Audio #1
ID : 2
Format : AC-3
Format/Info : Audio Coding 3
Mode extension : CM (complete main)
Codec ID : A_AC3
Duration : 1h 39mn
Bit rate mode : Constant
Bit rate : 384 Kbps
Channel(s) : 6 channels
Channel positions : Front: L C R, Side: L R, LFE
Sampling rate : 48.0 KHz
Bit depth : 16 bits
Compression mode : Lossy
Stream size : 273 MiB (3%)
Title : Двухголосый, закадровый MC-Entertainment
Language : Russian
Default : Yes
Forced : No
Audio #2
ID : 3
Format : AC-3
Format/Info : Audio Coding 3
Mode extension : CM (complete main)
Codec ID : A_AC3
Duration : 1h 39mn
Bit rate mode : Constant
Bit rate : 640 Kbps
Channel(s) : 6 channels
Channel positions : Front: L C R, Side: L R, LFE
Sampling rate : 48.0 KHz
Bit depth : 16 bits
Compression mode : Lossy
Stream size : 455 MiB (5%)
Title : Двухголосый, закадровый Гланц и Королева
Language : Russian
Default : No
Forced : No
Audio #3
ID : 4
Format : AC-3
Format/Info : Audio Coding 3
Mode extension : CM (complete main)
Codec ID : A_AC3
Duration : 1h 39mn
Bit rate mode : Constant
Bit rate : 640 Kbps
Channel(s) : 6 channels
Channel positions : Front: L C R, Side: L R, LFE
Sampling rate : 48.0 KHz
Bit depth : 16 bits
Compression mode : Lossy
Stream size : 455 MiB (5%)
Title : Оригинал
Language : Japanese
Default : No
Forced : No
Text
ID : 5
Format : UTF-8
Codec ID : S_TEXT/UTF8
Codec ID/Info : UTF-8 Plain Text
Title : Полные
Language : Russian
Default : No
Forced : No
Menu
00:00:00.000 : :00:00:00:00000
00:10:00.000 : :00:10:00.00000
00:20:00.000 : :00:20:00:00000
00:30:00.000 : :00:30:00:00000
00:40:00.000 : :00:40:00:00000
00:50:00.000 : :00:50:00:00000
01:00:00.000 : :01:00:00:00000
01:10:00.000 : :01:10:00:00000
01:20:00.000 : :01:20:00:00000
01:30:00.000 : :01:30:00:00000

Скриншоты

Просьба к переливающим на другие сайты, в оформлении указывайте пожалуйста авторство рипа - Tiberiumsun69

[Цитировать]
Гость

Выложил для разнообразия аниме.
 
Показать сообщения:    

Текущее время: 05-Дек 01:24

Часовой пояс: UTC + 3


Вы не можете начинать темы
Вы не можете отвечать на сообщения
Вы не можете редактировать свои сообщения
Вы не можете удалять свои сообщения
Вы не можете голосовать в опросах
Вы не можете прикреплять файлы к сообщениям
Вы не можете скачивать файлы