[Цитировать]
Kryl

Призрак в доспехах / Ghost in the Shell (2017) BDRip 1080p | 60 fps- Информация
Название: Призрак в доспехах
Оригинальное название: Ghost in the Shell
Год выхода: 2017
Жанр: Фантастика, боевик, триллер, драма, криминал, детектив
Режиссер: Руперт Сандерс
Сценарий: Масамунэ Сиро, Джейми Мосс, Уильям Уилер
Продюсер: Майкл Костиган, Стивен Пол, Рэй Анджелик
В ролях: Скарлетт Йоханссон, Йохан Филип Асбек, Такеши Китано, Жюльетт Бинош, Майкл Питт, Чин Хань, Дануся Самал, Ласарус Ратуэре, Ютака Идзумихара, Таванда Маниймо
--Сюжет:
Светлое будущее, где что-то пошло не так. Мир погряз в Интернете и передовом протезировании. Каждое человеческое существо считает своим святым долгом вставить в уши антенны от Wi-Fi роутера, сделать пластическую операцию под Рикки Мартина или хотя бы залить в себя лимонад "Буратино" вместо крови. Между тем, в недрах могущественной корпорации тайно разрабатывается особый военизированный имплант, фактически не оставляющий в организме подопытного ни одного живого места. Получившийся в результате эксперимента гибрид зачисляют в качестве боевого агента в отдел по борьбе с электронным бандитизмом. И когда неизвестный хакер начинает виртуозно кошмарить бизнес, грубо проникая в мозги лучших ученых компании с помощью инородных предметов, только первый в мире киборг с полностью синтетическим телом и встроенным генератором случайных мыслей и эмоций способен остановить произвол.
-Страна: США, Индия, Китай, Япония, Гонконг, Великобритания, Новая Зеландия, Канада, Австралия
Продолжительность: 01:46:56

Файл
Кодек: MPEG4/ISO/AVC/H.264
Формат: MKV
Качество: BDRip 1080p | 60 fps
Видео: 1920 x 1080 (1.778) | 59.940 fps | 35.0 Мбит/сек
Аудио 1: AC3 | 5.1 | 48 kHz | 384 kbps | 16 bit | Дубляж - iTunes |
Аудио 2: AC3 | 5.1 | 48 kHz | 640 kbps | 16 bit | English |
Субтитры: Русские (forced, full), английские (Full, SDH Colored)

MedifInfo

Видео
Идентификатор : 1
Формат : AVC
Формат/Информация : Advanced Video Codec
Профиль формата : High@L4.1
Параметр CABAC формата : Да
Параметр ReFrames формата : 4 кадра
Идентификатор кодека : V_MPEG4/ISO/AVC
Продолжительность : 1 ч. 46 м.
Битрейт : 35,0 Мбит/сек
Ширина : 1920 пикселей
Высота : 1080 пикселей
Соотношение сторон : 16:9
Режим частоты кадров : Постоянный
Частота кадров : 59,880 кадров/сек
Частота кадров в оригинале : 59,940 кадров/сек
Цветовое пространство : YUV
Субдискретизация насыщенности : 4:2:0
Битовая глубина : 8 бит
Тип развёртки : Прогрессивная
Бит/(Пиксели*Кадры) : 0.282
Размер потока : 25,4 Гбайт (95%)
Заголовок : www.60-fps.org
Библиотека кодирования : x264 core 148 r2744 b97ae06
Настройки программы : cabac=1 / ref=4 / deblock=1:-3:-3 / analyse=0x3:0x113 / me=umh / subme=8 / psy=1 / psy_rd=1.00:0.25 / mixed_ref=1 / me_range=32 / chroma_me=1 / trellis=1 / 8x8dct=1 / cqm=0 / deadzone=6,6 / fast_pskip=1 / chroma_qp_offset=-4 / threads=12 / lookahead_threads=2 / sliced_threads=0 / nr=0 / decimate=0 / interlaced=0 / bluray_compat=0 / constrained_intra=0 / bframes=3 / b_pyramid=2 / b_adapt=1 / b_bias=0 / direct=3 / weightb=1 / open_gop=0 / weightp=2 / keyint=599 / keyint_min=59 / scenecut=40 / intra_refresh=0 / rc_lookahead=50 / rc=2pass / mbtree=1 / bitrate=34999 / ratetol=1.0 / qcomp=0.80 / qpmin=0 / qpmax=69 / qpstep=4 / cplxblur=20.0 / qblur=0.5 / vbv_maxrate=62500 / vbv_bufsize=78125 / nal_hrd=none / filler=0 / ip_ratio=1.10 / aq=1:0.50
Default : Да
Forced : Нет
Аудио #1
Идентификатор : 2
Формат : AC-3
Формат/Информация : Audio Coding 3
Расширение режима : CM (complete main)
Параметр Endianness формата : Big
Идентификатор кодека : A_AC3
Продолжительность : 1 ч. 46 м.
Вид битрейта : Постоянный
Битрейт : 384 Кбит/сек
Каналы : 6 каналов
Расположение каналов : Front: L C R, Side: L R, LFE
Частота : 48,0 КГц
Битовая глубина : 16 бит
Метод сжатия : С потерями
Размер потока : 294 Мбайт (1%)
Заголовок : Дубляж - iTunes
Язык : Russian
Default : Да
Forced : Нет
Аудио #2
Идентификатор : 3
Формат : AC-3
Формат/Информация : Audio Coding 3
Расширение режима : CM (complete main)
Параметр Endianness формата : Big
Идентификатор кодека : A_AC3
Продолжительность : 1 ч. 46 м.
Вид битрейта : Постоянный
Битрейт : 640 Кбит/сек
Каналы : 6 каналов
Расположение каналов : Front: L C R, Side: L R, LFE
Частота : 48,0 КГц
Битовая глубина : 16 бит
Метод сжатия : С потерями
Размер потока : 490 Мбайт (2%)
Заголовок : Original
Язык : English
Default : Нет
Forced : Нет
Текст #1
Идентификатор : 4
Формат : UTF-8
Идентификатор кодека : S_TEXT/UTF8
Идентификатор кодека/Информация : UTF-8 Plain Text
Заголовок : Forced
Язык : Russian
Default : Да
Forced : Да
Текст #2
Идентификатор : 5
Формат : UTF-8
Идентификатор кодека : S_TEXT/UTF8
Идентификатор кодека/Информация : UTF-8 Plain Text
Заголовок : Full
Язык : Russian
Default : Нет
Forced : Нет
Текст #3
Идентификатор : 6
Формат : UTF-8
Идентификатор кодека : S_TEXT/UTF8
Идентификатор кодека/Информация : UTF-8 Plain Text
Заголовок : Full
Язык : English
Default : Нет
Forced : Нет
Текст #4
Идентификатор : 7
Формат : UTF-8
Идентификатор кодека : S_TEXT/UTF8
Идентификатор кодека/Информация : UTF-8 Plain Text
Заголовок : SDH (Colored)
Язык : English
Default : Нет
Forced : Нет
Меню
00:00:00.000 : en:00:00:00.000
00:08:09.322 : en:00:08:09.322
00:14:39.962 : en:00:14:39.962
00:21:26.494 : en:00:21:26.494
00:28:02.681 : en:00:28:02.681
00:34:13.218 : en:00:34:13.218
00:39:27.615 : en:00:39:27.615
00:43:57.802 : en:00:43:57.802
00:51:49.815 : en:00:51:49.815
00:55:19.066 : en:00:55:19.066
01:01:06.872 : en:01:01:06.872
01:07:49.732 : en:01:07:49.732
01:14:36.972 : en:01:14:36.972
01:20:31.744 : en:01:20:31.744
01:27:46.178 : en:01:27:46.178
01:33:41.407 : en:01:33:41.407
01:38:00.083 : en:01:38:00.083

Релиз подготовлен 60 - fps

[Цитировать]
Талямба

За битрейт-отдельный спасибосик... !!!!!!!! Хитренький

[Цитировать]
lmakl

Удивляюсь Жир Улыбаюсь )))
 
Показать сообщения:    

Текущее время: 22-Июл 07:55

Часовой пояс: UTC + 3


Вы не можете начинать темы
Вы не можете отвечать на сообщения
Вы не можете редактировать свои сообщения
Вы не можете удалять свои сообщения
Вы не можете голосовать в опросах
Вы не можете прикреплять файлы к сообщениям
Вы не можете скачивать файлы