Призрак в доспехах. Истоки / Koukaku Kidoutai Arise (2013)

Призрак в доспехах. Истоки / Koukaku Kidoutai Arise (2013)- Информация
Название: Призрак в доспехах. Истоки
Оригинальное название: Koukaku Kidoutai Arise
Год выхода: 2013
Жанр: аниме, мультфильм, фантастика, боевик, драма
Режиссер: Kazuchika Kise
Сценарий: Масамунэ Сиро, Тоу Убуката
Продюсер: Кенго Абе, Мицутоси Аримото, Томоясу Нисимура
Сюжет:
События фильма разворачиваются через год после Четвертой мировой войны. Киборг-хакер экстраординарный Мотоко Кусанаги из 501-го секретного военного подразделения оказывается вовлечен в расследование событий, связанных с разрушительной бомбардировкой.
- - Страна: Япония
Продолжительность: 4 серии по 00:56:19 , + 00:02:30 (бонус)

Файл
Кодек: MPEG4/ISO/AVC H.264
Формат: MKV
Качество: BDRip-AVC | 60 fps
Видео: 1024x576 (16:9) | 59.940 fps | 4.4 Мбит/сек
Аудио 1: AC3 | 5.1 | 48 kHz | 640 kbps | 16 bit | Профессиональный (двухголосый) |LE-Production| |
Аудио 2: AC3 | 5.1 | 48 kHz | 640 kbps | 16 bit | Оригинал (Японский) |
Субтитры: русские (Полные)

Список серий

1. Призрак боли
2. Говорящая с призраками
3. Призрак Слез
4. Призрак Стоит Особняком
Бонус (Логикомы)
1. Логикома бьет
2. Логикома судит
3. Логикома любит
4. Логикома ускоряется

MedifInfo

Video
ID : 1
Format : AVC
Format/Info : Advanced Video Codec
Format profile : High@L4.1
Format settings, CABAC : Yes
Format settings, ReFrames : 4 frames
Codec ID : V_MPEG4/ISO/AVC
Duration : 56mn 19s
Bit rate : 4 400 Kbps
Width : 1 024 pixels
Height : 576 pixels
Display aspect ratio : 16:9
Frame rate : 59.940 fps
Color space : YUV
Chroma subsampling : 4:2:0
Bit depth : 8 bits
Scan type : Progressive
Bits/(Pixel*Frame) : 0.124
Stream size : 1.69 GiB (76%)
Title : Tiberiumsun69
Writing library : x264 core 146 r2538 121396c
Encoding settings : cabac=1 / ref=3 / deblock=1:0:0 / analyse=0x3:0x113 / me=umh / subme=9 / psy=1 / psy_rd=1.00:0.10 / mixed_ref=1 / me_range=32 / chroma_me=1 / trellis=2 / 8x8dct=1 / cqm=0 / deadzone=21,11 / fast_pskip=0 / chroma_qp_offset=-3 / threads=12 / lookahead_threads=3 / sliced_threads=0 / nr=0 / decimate=1 / interlaced=0 / bluray_compat=0 / constrained_intra=0 / bframes=16 / b_pyramid=2 / b_adapt=2 / b_bias=0 / direct=3 / weightb=1 / open_gop=0 / weightp=2 / keyint=250 / keyint_min=25 / scenecut=40 / intra_refresh=0 / rc_lookahead=40 / rc=2pass / mbtree=1 / bitrate=4400 / ratetol=1.0 / qcomp=0.60 / qpmin=0 / qpmax=69 / qpstep=4 / cplxblur=20.0 / qblur=0.5 / vbv_maxrate=14000 / vbv_bufsize=14000 / nal_hrd=none / filler=0 / ip_ratio=1.40 / aq=1:1.00
Language : English
Default : Yes
Forced : No
Audio #1
ID : 2
Format : AC-3
Format/Info : Audio Coding 3
Mode extension : CM (complete main)
Codec ID : A_AC3
Duration : 56mn 19s
Bit rate mode : Constant
Bit rate : 640 Kbps
Channel(s) : 6 channels
Channel positions : Front: L C R, Side: L R, LFE
Sampling rate : 48.0 KHz
Bit depth : 16 bits
Compression mode : Lossy
Stream size : 258 MiB (11%)
Title : DVO LE-Production
Language : Russian
Default : Yes
Forced : No
Audio #2
ID : 3
Format : AC-3
Format/Info : Audio Coding 3
Mode extension : CM (complete main)
Codec ID : A_AC3
Duration : 56mn 19s
Bit rate mode : Constant
Bit rate : 640 Kbps
Channel(s) : 6 channels
Channel positions : Front: L C R, Side: L R, LFE
Sampling rate : 48.0 KHz
Bit depth : 16 bits
Compression mode : Lossy
Stream size : 258 MiB (11%)
Title : Оригинал
Language : Japanese
Default : No
Forced : No
Text
ID : 4
Format : UTF-8
Codec ID : S_TEXT/UTF8
Codec ID/Info : UTF-8 Plain Text
Title : Полные
Language : Russian
Default : No
Forced : No

Призрак в доспехах / Koukaku Kidoutai (1995)

«It Found A Voice... Now It Needs A Body»- Информация
Название: Призрак в доспехах
Оригинальное название: Koukaku Kidoutai
Год выхода: 1995
Жанр: аниме, мультфильм, фантастика, боевик, драма
Режиссер: Мамору Осии
Сценарий: Кадзунори Ито, Масамунэ Сиро
Продюсер: Мицухиса Исикава, Кен Иядоми, Кен Мацумото
Сюжет:
2029 год. Границы между государствами окончательно рухнули, благодаря повсеместно распространившимся компьютерным сетям и кибер-технологиям. Когда давно разыскиваемый хакер по кличке «Кукловод» начинает вмешиваться в политику, «9-й Отдел» Министерства Общественной безопасности, группа кибернетически модифицированных полицейских, получает задание найти и остановить хакера. Но в ходе расследования возникает вопрос: кто же такой «Кукловод» в том мире где грань между человеком и машиной практически стерта?..
- - Страна: Япония
Продолжительность: 01:22:40

Файл
Кодек: MPEG4/ISO/AVC H.264
Формат: MKV
Качество: BDRip-AVC | 60 fps
Видео: 1024x552 (1.855) | 59.940 fps | 4.4 Мбит/сек
Аудио 1: AC3 | 2.0 | 48 kHz | 640 kbps | 16 bit | ОРТ |
Аудио 2: AC3 | 2.0 | 48 kHz | 640 kbps | 16 bit | Гланц и Королева |
Аудио 3: AC3 | 2.0 | 48 kHz | 192 kbps | 16 bit | Tycoon-studio |
Аудио 4: AC3 | 2.0 | 48 kHz | 640 kbps | 16 bit | Оригинал (Японский) |
Субтитры: русские (Полные)

MedifInfo

Video
ID : 1
Format : AVC
Format/Info : Advanced Video Codec
Format profile : High@L4.1
Format settings, CABAC : Yes
Format settings, ReFrames : 4 frames
Codec ID : V_MPEG4/ISO/AVC
Duration : 1h 22mn
Bit rate : 4 400 Kbps
Width : 1 024 pixels
Height : 552 pixels
Display aspect ratio : 1.855
Frame rate : 59.940 fps
Color space : YUV
Chroma subsampling : 4:2:0
Bit depth : 8 bits
Scan type : Progressive
Bits/(Pixel*Frame) : 0.130
Stream size : 2.44 GiB (65%)
Title : Tiberiumsun69
Writing library : x264 core 146 r2538 121396c
Encoding settings : cabac=1 / ref=3 / deblock=1:0:0 / analyse=0x3:0x113 / me=umh / subme=9 / psy=1 / psy_rd=1.00:0.10 / mixed_ref=1 / me_range=32 / chroma_me=1 / trellis=2 / 8x8dct=1 / cqm=0 / deadzone=21,11 / fast_pskip=0 / chroma_qp_offset=-3 / threads=12 / lookahead_threads=3 / sliced_threads=0 / nr=0 / decimate=1 / interlaced=0 / bluray_compat=0 / constrained_intra=0 / bframes=16 / b_pyramid=2 / b_adapt=2 / b_bias=0 / direct=3 / weightb=1 / open_gop=0 / weightp=2 / keyint=250 / keyint_min=25 / scenecut=40 / intra_refresh=0 / rc_lookahead=40 / rc=2pass / mbtree=1 / bitrate=4400 / ratetol=1.0 / qcomp=0.60 / qpmin=0 / qpmax=69 / qpstep=4 / cplxblur=20.0 / qblur=0.5 / vbv_maxrate=14000 / vbv_bufsize=14000 / nal_hrd=none / filler=0 / ip_ratio=1.40 / aq=1:1.00
Language : English
Default : Yes
Forced : No
Audio #1
ID : 2
Format : AC-3
Format/Info : Audio Coding 3
Mode extension : CM (complete main)
Codec ID : A_AC3
Duration : 1h 22mn
Bit rate mode : Constant
Bit rate : 640 Kbps
Channel(s) : 2 channels
Channel positions : Front: L R
Sampling rate : 48.0 KHz
Bit depth : 16 bits
Compression mode : Lossy
Stream size : 378 MiB (10%)
Title : Дубляж ОРТ
Language : Russian
Default : Yes
Forced : No
Audio #2
ID : 3
Format : AC-3
Format/Info : Audio Coding 3
Mode extension : CM (complete main)
Codec ID : A_AC3
Duration : 1h 22mn
Bit rate mode : Constant
Bit rate : 640 Kbps
Channel(s) : 2 channels
Channel positions : Front: L R
Sampling rate : 48.0 KHz
Bit depth : 16 bits
Compression mode : Lossy
Stream size : 378 MiB (10%)
Title : MVO Гланс и Королева
Language : Russian
Default : No
Forced : No
Audio #3
ID : 4
Format : AC-3
Format/Info : Audio Coding 3
Mode extension : CM (complete main)
Codec ID : A_AC3
Duration : 1h 22mn
Bit rate mode : Constant
Bit rate : 192 Kbps
Channel(s) : 2 channels
Channel positions : Front: L R
Sampling rate : 48.0 KHz
Bit depth : 16 bits
Compression mode : Lossy
Stream size : 114 MiB (3%)
Title : DVO Tycoon-Studio
Language : Russian
Default : No
Forced : No
Audio #4
ID : 5
Format : AC-3
Format/Info : Audio Coding 3
Mode extension : CM (complete main)
Codec ID : A_AC3
Duration : 1h 22mn
Bit rate mode : Constant
Bit rate : 640 Kbps
Channel(s) : 2 channels
Channel positions : Front: L R
Sampling rate : 48.0 KHz
Bit depth : 16 bits
Compression mode : Lossy
Stream size : 378 MiB (10%)
Title : Оригинал
Language : Japanese
Default : No
Forced : No
Text
ID : 6
Format : ASS
Codec ID : S_TEXT/ASS
Codec ID/Info : Advanced Sub Station Alpha
Compression mode : Lossless
Title : Полные
Language : Russian
Default : No
Forced : No
Menu
00:00:00.000 : en:00:00:00.000
00:04:06.163 : en:00:04:06.163
00:08:24.754 : en:00:08:24.754
00:13:15.169 : en:00:13:15.169
00:24:17.706 : en:00:24:17.706
00:26:05.063 : en:00:26:05.063
00:27:40.158 : en:00:27:40.158
00:33:02.981 : en:00:33:02.981
00:36:21.513 : en:00:36:21.513
00:45:32.271 : en:00:45:32.271
00:53:59.486 : en:00:53:59.486
00:59:40.410 : en:00:59:40.410
01:06:24.355 : en:01:06:24.355
01:13:58.434 : en:01:13:58.434
01:17:31.480 : en:01:17:31.480

Призрак в доспехах 2.0 / Koukaku Kidoutai (2008)

«The cyberpunk classic that inspired 'The Matrix', reworked for today!»- Информация
Название: Призрак в доспехах 2.0
Оригинальное название: Koukaku Kidoutai
Год выхода: 2008
Жанр: аниме, мультфильм, фантастика, боевик, драма
Режиссер: Мамору Осии
Сценарий: Масамунэ Сиро, Кадзунори Ито
Продюсер: Мицухиса Исикава, Кен Мацумото, Энди Фрейн
Сюжет:
К 2029 году благодаря повсеместно распространившимся компьютерным сетям и кибер-технологиям практически все люди вживили себе разнообразные нейронные имплантанты. Но кибер-технологии принесли и новую опасность для человека: стал возможным так называемый «взлом мозга» и ряд других преступлений, связанный непосредственно с ними.
Давно разыскиваемый хакер, которого прозвали Кукловодом, начинает вмешиваться в политику, и тогда «9-й Отдел» Министерства Общественной безопасности, оперотряд полиции, оснащённый по последнему слову техники, получает приказ расследовать это дело и остановить Кукловода. В погоне за ним возникает вопрос: что делает человека человеком и кто такой Кукловод в этом мире, где граница между человеком и машиной почти незаметна?
- - Страна: Япония, США
Продолжительность: 01:23:22

Файл
Кодек: MPEG4/ISO/AVC H.264
Формат: MKV
Качество: BDRip-AVC | 60 fps
Видео: 1024x576 (16:9) | 59.940 fps | 4.6 Мбит/сек
Аудио 1: AC3 | 5.1 | 48 kHz | 640 kbps | 16 bit | Гланц и Королева |
Аудио 2: AC3 | 5.1 | 48 kHz | 640 kbps | 16 bit | Оригинал (Японский) |
Субтитры: русские (Полные)

MedifInfo

Video
ID : 1
Format : AVC
Format/Info : Advanced Video Codec
Format profile : High@L4.1
Format settings, CABAC : Yes
Format settings, ReFrames : 4 frames
Codec ID : V_MPEG4/ISO/AVC
Duration : 1h 23mn
Bit rate : 4 600 Kbps
Width : 1 024 pixels
Height : 576 pixels
Display aspect ratio : 16:9
Frame rate : 59.940 fps
Color space : YUV
Chroma subsampling : 4:2:0
Bit depth : 8 bits
Scan type : Progressive
Bits/(Pixel*Frame) : 0.130
Stream size : 2.61 GiB (76%)
Title : Tiberiumsun69
Writing library : x264 core 146 r2538 121396c
Encoding settings : cabac=1 / ref=3 / deblock=1:0:0 / analyse=0x3:0x113 / me=umh / subme=9 / psy=1 / psy_rd=1.00:0.10 / mixed_ref=1 / me_range=32 / chroma_me=1 / trellis=2 / 8x8dct=1 / cqm=0 / deadzone=21,11 / fast_pskip=0 / chroma_qp_offset=-3 / threads=12 / lookahead_threads=3 / sliced_threads=0 / nr=0 / decimate=1 / interlaced=0 / bluray_compat=0 / constrained_intra=0 / bframes=16 / b_pyramid=2 / b_adapt=2 / b_bias=0 / direct=3 / weightb=1 / open_gop=0 / weightp=2 / keyint=250 / keyint_min=25 / scenecut=40 / intra_refresh=0 / rc_lookahead=40 / rc=2pass / mbtree=1 / bitrate=4600 / ratetol=1.0 / qcomp=0.60 / qpmin=0 / qpmax=69 / qpstep=4 / cplxblur=20.0 / qblur=0.5 / vbv_maxrate=14000 / vbv_bufsize=14000 / nal_hrd=none / filler=0 / ip_ratio=1.40 / aq=1:1.00
Language : English
Default : Yes
Forced : No
Audio #1
ID : 2
Format : AC-3
Format/Info : Audio Coding 3
Mode extension : CM (complete main)
Codec ID : A_AC3
Duration : 1h 23mn
Bit rate mode : Constant
Bit rate : 640 Kbps
Channel(s) : 6 channels
Channel positions : Front: L C R, Side: L R, LFE
Sampling rate : 48.0 KHz
Bit depth : 16 bits
Compression mode : Lossy
Stream size : 382 MiB (11%)
Title : DVO Гланц и Королева
Language : Russian
Default : Yes
Forced : No
Audio #2
ID : 3
Format : AC-3
Format/Info : Audio Coding 3
Mode extension : CM (complete main)
Codec ID : A_AC3
Duration : 1h 23mn
Bit rate mode : Constant
Bit rate : 640 Kbps
Channel(s) : 6 channels
Channel positions : Front: L C R, Side: L R, LFE
Sampling rate : 48.0 KHz
Bit depth : 16 bits
Compression mode : Lossy
Stream size : 382 MiB (11%)
Title : Оригинал
Language : Japanese
Default : No
Forced : No
Text
ID : 4
Format : ASS
Codec ID : S_TEXT/ASS
Codec ID/Info : Advanced Sub Station Alpha
Compression mode : Lossless
Title : Полные
Language : Russian
Default : No
Forced : No

Призрак в доспехах 2: Невинность / Innocence (2004)

«When machines learn to feel, who decides what is human...»- Информация
Название: Призрак в доспехах 2: Невинность
Оригинальное название: Innocence
Год выхода: 2004
Жанр: аниме, мультфильм, фантастика, фэнтези, боевик, триллер, драма
Режиссер: Мамору Осии
Сценарий: Масамунэ Сиро, Мамору Осии, Ричард Эпкар
Продюсер: Мицухиса Исикава, Тосио Судзуки, Рюдзи Мицумото
Сюжет:
Близкое будущее, 2032 год. Техника достигла невиданного прогресса. Это мир, который люди разделяют с киборгами и роботами. Бато — детектив отдела полиции по борьбе с терроризмом. Он — живой киборг, оснащенный искусственными руками, ногами и прочими частями тела. Остался лишь его прежний мозг да память о ней, о Мотоко Кусанаги.
Вместе с напарником Тогусой Бато привлечен к расследованию серии убийств роботами своих владельцев, причем все роботы относятся к экспериментальной модели секс-андроидов фирмы Locus Solus. Компания предпочла бы замять дело, отозвав роботов с рынка и договорившись с родственниками погибших. Но Бато и Тогуса — не из тех, с кем можно заключить полюбовную сделку.
- - Страна: Япония
Продолжительность: 01:39:05

Файл
Кодек: MPEG4/ISO/AVC H.264
Формат: MKV
Качество: BDRip-AVC | 60 fps
Видео: 1024x552 (1.855) | 59.940 fps | 4.4 Мбит/сек
Аудио 1: AC3 | 5.1 | 48 kHz | 640 kbps | 16 bit | Гланц и Королева |
Аудио 2: AC3 | 5.1 | 48 kHz | 640 kbps | 16 bit | Оригинал (Японский) |
Субтитры: русские (Полные)

MedifInfo

Video
ID : 1
Format : AVC
Format/Info : Advanced Video Codec
Format profile : High@L4.1
Format settings, CABAC : Yes
Format settings, ReFrames : 4 frames
Codec ID : V_MPEG4/ISO/AVC
Duration : 1h 39mn
Bit rate : 4 400 Kbps
Width : 1 024 pixels
Height : 552 pixels
Display aspect ratio : 1.855
Frame rate : 59.940 fps
Color space : YUV
Chroma subsampling : 4:2:0
Bit depth : 8 bits
Scan type : Progressive
Bits/(Pixel*Frame) : 0.130
Stream size : 2.96 GiB (75%)
Writing library : x264 core 146 r2538 121396c
Encoding settings : cabac=1 / ref=3 / deblock=1:0:0 / analyse=0x3:0x113 / me=umh / subme=9 / psy=1 / psy_rd=1.00:0.10 / mixed_ref=1 / me_range=32 / chroma_me=1 / trellis=2 / 8x8dct=1 / cqm=0 / deadzone=21,11 / fast_pskip=0 / chroma_qp_offset=-3 / threads=12 / lookahead_threads=3 / sliced_threads=0 / nr=0 / decimate=1 / interlaced=0 / bluray_compat=0 / constrained_intra=0 / bframes=16 / b_pyramid=2 / b_adapt=2 / b_bias=0 / direct=3 / weightb=1 / open_gop=0 / weightp=2 / keyint=250 / keyint_min=25 / scenecut=40 / intra_refresh=0 / rc_lookahead=40 / rc=2pass / mbtree=1 / bitrate=4400 / ratetol=1.0 / qcomp=0.60 / qpmin=0 / qpmax=69 / qpstep=4 / cplxblur=20.0 / qblur=0.5 / vbv_maxrate=14000 / vbv_bufsize=14000 / nal_hrd=none / filler=0 / ip_ratio=1.40 / aq=1:1.00
Language : English
Default : Yes
Forced : No
Audio #1
ID : 2
Format : AC-3
Format/Info : Audio Coding 3
Mode extension : CM (complete main)
Codec ID : A_AC3
Duration : 1h 39mn
Bit rate mode : Constant
Bit rate : 640 Kbps
Channel(s) : 6 channels
Channel positions : Front: L C R, Side: L R, LFE
Sampling rate : 48.0 KHz
Bit depth : 16 bits
Compression mode : Lossy
Stream size : 454 MiB (11%)
Title : MVO Гланс и Королева
Language : Russian
Default : Yes
Forced : No
Audio #2
ID : 3
Format : AC-3
Format/Info : Audio Coding 3
Mode extension : CM (complete main)
Codec ID : A_AC3
Duration : 1h 39mn
Bit rate mode : Constant
Bit rate : 640 Kbps
Channel(s) : 6 channels
Channel positions : Front: L C R, Side: L R, LFE
Sampling rate : 48.0 KHz
Bit depth : 16 bits
Compression mode : Lossy
Stream size : 454 MiB (11%)
Title : Оригинал
Language : Japanese
Default : No
Forced : No
Text
ID : 4
Format : UTF-8
Codec ID : S_TEXT/UTF8
Codec ID/Info : UTF-8 Plain Text
Title : Полные
Language : Russian
Default : No
Forced : No

Синдром одиночки (сериал) / Koukaku Kidoutai Stand Alone Complex (2002-2004)

«A New Beginning, A New Threat...»- Информация
Название: Синдром одиночки (сериал)
Оригинальное название: Koukaku Kidoutai Stand Alone Complex
Год выхода: 2002-2004
Жанр: аниме, мультфильм, фантастика, боевик, триллер, криминал
Режиссер: Кэндзи Камияма, Масаки Тачибана, Ицуро Кавасаки
Сценарий: Кэндзи Камияма, Масамунэ Сиро, Мамору Осии
Продюсер: Мицухиса Исикава, Марвин Глейчер, Кен Иядоми
Сюжет:
«Майор» Мотоко Кусанаги, Бато и другие сотрудники секретного Девятого отдела разрешают международный кризис с заложниками, ведут охоту на самовольно покинувший полигон шагающий танк и расследуют серию самоубийств андроидов устаревшей модели. Когда погибает старый друг Тогусы, оперативники выходят на след загадочного хакера по кличке «Смеющийся человек»…
- - Страна: Япония
Продолжительность: 01:39:05

Файл
Кодек: MPEG4/ISO/AVC H.264
Формат: MKV
Качество: BDRip-AVC | 60 fps
Видео: 1024x552 (1.855) | 59.940 fps | 4.4 Мбит/сек
Аудио 1: AC3 | 5.1 | 48 kHz | 384 kbps | 16 bit | Гланц и Королева |
Аудио 2: AC3 | 5.1 | 48 kHz | 640 kbps | 16 bit | Оригинал (Японский) |
Субтитры: русские (Полные)

Список серий

Сезон 1
01. БЮРО ОБЩЕСТВЕННОЙ БЕЗОПАСНОСТИ, 9-Й ОТДЕЛ
02. ИСПЫТАНИЕ
03. АНДРОИД И Я
04. ПЕРЕХВАТЧИК
05. ПРИМАНКА
06. ПОДРАЖАТЕЛИ
07. ИДОЛОПОКЛОННИЧЕСТВО
08. ПРОПАВШИЕ СЕРДЦА
09. ЧАТ! ЧАТ! ЧАТ!
10. ВОЙНА В ДЖУНГЛЯХ
11. ПОРТРЕТЫ
12. ПОБЕГ
13. НЕРАВЕНСТВО
14. ПРИЗРАК КАПИТАЛИЗМА
15. СВОЕВОЛЬНЫЕ МАШИНЫ
16. МЁРТВАЯ ЗОНА
17. ИСТИНА В ВИНЕ
18. ПРОПАВШЕЕ НАСЛЕДСТВО
19. ПЛЕН
20. ПОВТОР
21. ПРИЗРАЧНЫЕ СЛЕДЫ
22. СКАНДАЛ
23. ЗА ГРАНЬЮ ДОБРА И ЗЛА
24. ОДИНОЧКА
25. ПОД ГРАДОМ ПУЛЬ
26. ДЕВЯТЫЙ ОТДЕЛ ВОСКРЕШЕНИЕ
Сезон 2
01. ПЕРЕЗАГРУЗКА
02. МЕЧТАТЕЛЬ
03. ВЕЧЕР СУББОТЫ, УТРО ВОСКРЕСЕНЬЯ
04. ЕСТЕСТВЕННЫЙ ВРАГ
05. МОТИВАЦИЯ
06. ИСТОЧНИК ТЕПЛА
07. РАПСОДИЯ - МУЗЫКА ПОБЕЖДЁННЫХ
08. ВЕГЕТАРИАНСКИЙ УЖИН
09. БЕЗНАДЁЖНАЯ НАДЕЖДА
10. ПРАВЕДНАЯ ЗЛОСТЬ
11. СТЕКЛЯННЫЙ ЛАБИРИНТ
12. БЕЗЫМЯННЫЕ
13. ЛИЦО
14. БЕРЕГИСЬ ЛЕВОГО ГЛАЗА
15. ДЕНЬ МАШИН
16. ПОБЫВАТЬ ТАМ
17. КАК МАТЬ И ДИТЯ
18. ПОЭМА АНГЕЛА
19. ОТНОСИТЕЛЬНАЯ РЕАКЦИЯ
20. БЕСПОРЯДКИ НА СЕВЕРНОЙ ГРАНИЦЕ
21. ЗАМЕШАТЕЛЬСТВО
22. ПОКИНУТЫЙ ГОРОД
23. ДЕНЬ, КОГДА РУХНУЛ МОСТ
24. ДЭДЗИМА ПОД УДАРАМИ С ВОЗДУХА
25. ПО ОДНУ СТОРОНУ РАЯ
26. ВОЗВРАТ К ПАТРИОТИЗМУ

MedifInfo

Video
ID : 1
Format : AVC
Format/Info : Advanced Video Codec
Format profile : High@L4.1
Format settings, CABAC : Yes
Format settings, ReFrames : 4 frames
Codec ID : V_MPEG4/ISO/AVC
Duration : 24mn 29s
Bit rate : 4 400 Kbps
Width : 1 024 pixels
Height : 552 pixels
Display aspect ratio : 1.855
Frame rate : 59.880 fps
Color space : YUV
Chroma subsampling : 4:2:0
Bit depth : 8 bits
Scan type : Progressive
Bits/(Pixel*Frame) : 0.130
Stream size : 761 MiB (79%)
Writing library : x264 core 146 r2538 121396c
Encoding settings : cabac=1 / ref=3 / deblock=1:0:0 / analyse=0x3:0x113 / me=umh / subme=9 / psy=1 / psy_rd=1.00:0.10 / mixed_ref=1 / me_range=32 / chroma_me=1 / trellis=2 / 8x8dct=1 / cqm=0 / deadzone=21,11 / fast_pskip=0 / chroma_qp_offset=-3 / threads=12 / lookahead_threads=3 / sliced_threads=0 / nr=0 / decimate=1 / interlaced=0 / bluray_compat=0 / constrained_intra=0 / bframes=16 / b_pyramid=2 / b_adapt=2 / b_bias=0 / direct=3 / weightb=1 / open_gop=0 / weightp=2 / keyint=250 / keyint_min=25 / scenecut=40 / intra_refresh=0 / rc_lookahead=40 / rc=2pass / mbtree=1 / bitrate=4400 / ratetol=1.0 / qcomp=0.60 / qpmin=0 / qpmax=69 / qpstep=4 / cplxblur=20.0 / qblur=0.5 / vbv_maxrate=14000 / vbv_bufsize=14000 / nal_hrd=none / filler=0 / ip_ratio=1.40 / aq=1:1.00
Language : English
Default : Yes
Forced : No
Audio #1
ID : 2
Format : AC-3
Format/Info : Audio Coding 3
Mode extension : CM (complete main)
Codec ID : A_AC3
Duration : 24mn 29s
Bit rate mode : Constant
Bit rate : 384 Kbps
Channel(s) : 6 channels
Channel positions : Front: L C R, Side: L R, LFE
Sampling rate : 48.0 KHz
Bit depth : 16 bits
Compression mode : Lossy
Stream size : 67.2 MiB (7%)
Title : MC-Ent
Language : Russian
Default : Yes
Forced : No
Audio #2
ID : 3
Format : AC-3
Format/Info : Audio Coding 3
Mode extension : CM (complete main)
Codec ID : A_AC3
Duration : 24mn 29s
Bit rate mode : Constant
Bit rate : 640 Kbps
Channel(s) : 6 channels
Channel positions : Front: L C R, Side: L R, LFE
Sampling rate : 48.0 KHz
Bit depth : 16 bits
Compression mode : Lossy
Stream size : 112 MiB (12%)
Title : Оригинал
Language : Japanese
Default : No
Forced : No
Text
ID : 4
Format : UTF-8
Codec ID : S_TEXT/UTF8
Codec ID/Info : UTF-8 Plain Text
Title : Полные
Language : Russian
Default : No
Forced : No

Дни Татиком / Tachikoma na hibi (2002-2004)

«A New Beginning, A New Threat...»- Информация
Название: Дни Татиком
Оригинальное название: Tachikoma na hibi
Год выхода: 2002-2004
Жанр: аниме, мультфильм, короткометражка
Сценарий: Matruka, Масамунэ Сиро
Сюжет:

Героями этого миниатюрного сериала являются Татикомы, обладающие некоторым интеллектом роботы, выглядящие как паукообразные и очень подвижные маленькие танки. Каждый из Татиком наделён индивидуальными чертами, но поскольку периодически эти роботы синхронизируются друг с другом, то все они разделяют ту же память и тот же опыт — полезная функция для непрерывно совершенствующихся тактических систем. Будучи самым опасным и эффективным оружием Девятого Отдела, занятым предотвращением кибернетического терроризма, Татикомы во многом напоминают малышей, чей крайне наивный и невиный образ мыслей развивается и «взрослеет» от серии к серии, а их детская непосредственность и любопытство нередко приводят роботов-малюток к очень комичным ситуациям.
- Страна: Япония
Продолжительность: ~ 00:00:58, ~00:00:32

Файл
Кодек: MPEG4/ISO/AVC H.264
Формат: MKV
Качество: BDRip-AVC | 60 fps
Видео: 1024x552 (1.855) | 59.940 fps | 4.0 Мбит/сек
Аудио 1: AC3 | 5.1 | 48 kHz | 384 kbps | 16 bit | MC-Entertainment |
Аудио 2: AC3 | 5.1 | 48 kHz | 640 kbps | 16 bit | Оригинал (Японский) |
Субтитры: русские (Полные)

MedifInfo

Video
ID : 1
Format : AVC
Format/Info : Advanced Video Codec
Format profile : High@L4.1
Format settings, CABAC : Yes
Format settings, ReFrames : 4 frames
Codec ID : V_MPEG4/ISO/AVC
Duration : 58s 233ms
Bit rate : 4 073 Kbps
Width : 1 024 pixels
Height : 552 pixels
Display aspect ratio : 1.855
Frame rate : 59.880 fps
Color space : YUV
Chroma subsampling : 4:2:0
Bit depth : 8 bits
Scan type : Progressive
Bits/(Pixel*Frame) : 0.120
Stream size : 28.3 MiB (78%)
Title : Tiberiumsun69
Language : English
Default : Yes
Forced : No
Audio #1
ID : 2
Format : AC-3
Format/Info : Audio Coding 3
Mode extension : CM (complete main)
Codec ID : A_AC3
Duration : 58s 238ms
Bit rate mode : Constant
Bit rate : 384 Kbps
Channel(s) : 6 channels
Channel positions : Front: L C R, Side: L R, LFE
Sampling rate : 48.0 KHz
Bit depth : 16 bits
Compression mode : Lossy
Delay relative to video : 30ms
Stream size : 2.67 MiB (7%)
Title : MVO MC-Ent
Language : Russian
Default : Yes
Forced : No
Audio #2
ID : 3
Format : AC-3
Format/Info : Audio Coding 3
Mode extension : CM (complete main)
Codec ID : A_AC3
Duration : 58s 238ms
Bit rate mode : Constant
Bit rate : 640 Kbps
Channel(s) : 6 channels
Channel positions : Front: L C R, Side: L R, LFE
Sampling rate : 48.0 KHz
Bit depth : 16 bits
Compression mode : Lossy
Delay relative to video : 9ms
Stream size : 4.44 MiB (12%)
Title : Оригинал
Language : Japanese
Default : No
Forced : No
Text
ID : 4
Format : UTF-8
Codec ID : S_TEXT/UTF8
Codec ID/Info : UTF-8 Plain Text
Title : Полные
Language : Russian
Default : No
Forced : No

Призрак в доспехах: Синдром одиночки. Сообщество крепкого государства / Koukaku Kidoutai Stand Alone Complex Solid State Society (2006)

- Информация
Название: Призрак в доспехах: Синдром одиночки. Сообщество крепкого государства
Оригинальное название: Koukaku Kidoutai Stand Alone Complex Solid State Society
Год выхода: 2006
Жанр: аниме, мультфильм, фантастика, боевик, приключения
Режиссер: Кэндзи Камияма
Сценарий: Масамунэ Сиро, Кэндзи Камияма, Сётаро Суга
Продюсер: Норихиса Оки
Сюжет:

2034 г нашей эры. Прошло два года с тех пор как Мотоко Кусанаги, ушла из 9 отдела. Тогуса — теперь новый лидер команды, в которой теперь сильно увеличено количество персонала. Расширенный новый 9 отдел противостоит множеству сложных инцидентов, и исследования показывают, что отличный хакер, названный Кукольником — виновник всего ряда событий. Ряд интригующих инцидентов, которые лица 9 отдела постепенно соединяют почти мастерски. Кто — Кукольник? Что случится с отношениями Бато с Мотоко? Что в действительности стоит за этим тщательно запланированным прекрасным преступлением? И, каков же будет результат? Тайны окружают Сообщество стабильной государственности…
- - Страна: Япония
Продолжительность: 01:48:34

Файл
Кодек: MPEG4/ISO/AVC H.264
Формат: MKV
Качество: BDRip-AVC | 60 fps
Видео: 1024x576 (16:9) | 59.940 fps | 4.4 Мбит/сек
Аудио 1: AC3 | 5.1 | 48 kHz | 384 kbps | 16 bit | Гланц и Королева |
Аудио 2: AC3 | 5.1 | 48 kHz | 640 kbps | 16 bit | Оригинал (Японский) |
Субтитры: русские (Полные)

MedifInfo

Video
ID : 1
Format : AVC
Format/Info : Advanced Video Codec
Format profile : High@L4.1
Format settings, CABAC : Yes
Format settings, ReFrames : 4 frames
Codec ID : V_MPEG4/ISO/AVC
Duration : 1h 48mn
Bit rate : 4 400 Kbps
Width : 1 024 pixels
Height : 576 pixels
Display aspect ratio : 16:9
Frame rate : 59.940 fps
Color space : YUV
Chroma subsampling : 4:2:0
Bit depth : 8 bits
Scan type : Progressive
Bits/(Pixel*Frame) : 0.124
Stream size : 3.25 GiB (82%)
Writing library : x264 core 146 r2538 121396c
Encoding settings : cabac=1 / ref=3 / deblock=1:0:0 / analyse=0x3:0x113 / me=umh / subme=9 / psy=1 / psy_rd=1.00:0.10 / mixed_ref=1 / me_range=32 / chroma_me=1 / trellis=2 / 8x8dct=1 / cqm=0 / deadzone=21,11 / fast_pskip=0 / chroma_qp_offset=-3 / threads=12 / lookahead_threads=3 / sliced_threads=0 / nr=0 / decimate=1 / interlaced=0 / bluray_compat=0 / constrained_intra=0 / bframes=16 / b_pyramid=2 / b_adapt=2 / b_bias=0 / direct=3 / weightb=1 / open_gop=0 / weightp=2 / keyint=250 / keyint_min=25 / scenecut=40 / intra_refresh=0 / rc_lookahead=40 / rc=2pass / mbtree=1 / bitrate=4400 / ratetol=1.0 / qcomp=0.60 / qpmin=0 / qpmax=69 / qpstep=4 / cplxblur=20.0 / qblur=0.5 / vbv_maxrate=14000 / vbv_bufsize=14000 / nal_hrd=none / filler=0 / ip_ratio=1.40 / aq=1:1.00
Language : English
Default : Yes
Forced : No
Audio #1
ID : 2
Format : AC-3
Format/Info : Audio Coding 3
Mode extension : CM (complete main)
Codec ID : A_AC3
Duration : 1h 48mn
Bit rate mode : Constant
Bit rate : 384 Kbps
Channel(s) : 6 channels
Channel positions : Front: L C R, Side: L R, LFE
Sampling rate : 48.0 KHz
Bit depth : 16 bits
Compression mode : Lossy
Stream size : 298 MiB (7%)
Title : DVO Гланц и Королева
Language : Russian
Default : Yes
Forced : No
Audio #2
ID : 3
Format : AC-3
Format/Info : Audio Coding 3
Mode extension : CM (complete main)
Codec ID : A_AC3
Duration : 1h 48mn
Bit rate mode : Constant
Bit rate : 448 Kbps
Channel(s) : 6 channels
Channel positions : Front: L C R, Side: L R, LFE
Sampling rate : 48.0 KHz
Bit depth : 16 bits
Compression mode : Lossy
Stream size : 348 MiB (9%)
Title : Оригинал
Language : Japanese
Default : No
Forced : No
Text
ID : 4
Format : UTF-8
Codec ID : S_TEXT/UTF8
Codec ID/Info : UTF-8 Plain Text
Title : Полные
Language : Russian
Default : No
Forced : No
Добавлена 5 часть в сборнике "Истоки"


Последний раз редактировалось: bot (2016-03-11 12:54), всего редактировалось 3 раз(а)

[Цитировать]
mnemeg

Я бы еще раз пересмотрел этот шедевр!

[Цитировать]
BliTz

Анимэ в 60 кадров Удивляюсь
Наруто сделали бы,но наверное я слишком многовато хочу Смеюсь
 
Показать сообщения:    

Текущее время: 08-Дек 19:09

Часовой пояс: UTC + 3


Вы не можете начинать темы
Вы не можете отвечать на сообщения
Вы не можете редактировать свои сообщения
Вы не можете удалять свои сообщения
Вы не можете голосовать в опросах
Вы не можете прикреплять файлы к сообщениям
Вы не можете скачивать файлы