[Цитировать]
envy

Информация о фильме
Русское название: Призрачный патруль
Оригинальное название: R.I.P.D.
Год выхода: 2013
Жанр: фантастика, боевик, комедия
Режиссер: Роберт Швентке
Выпущено: США
Продолжительность: 01:35:55
Перевод: Дублированный
В ролях: Райан Рейнольдс, Джефф Бриджес, Кевин Бэйкон, Мэри-Луиз Паркер, Стефани Зостак, Роберт Неппер, Мариса Миллер, Джеймс Хонг, Майк О’Мэлли, Девин Рэтрей-Сюжет фильма
Молодой полицейский на пике своей карьеры, во время очередного захвата банды преступников погибает. Попав в потусторонний мир он узнает что и там нет покоя, с учетом его способностей ему предлагают работу в "ПП". Это отряд по борьбе с всякой нечистью, духами и призраками, состоящий в организации R.I.P.D. Условие такое, целых сто лет он должен горбатится в команде бессмертных полицейских, выхода нет он соглашается. В напарники ему достается вредный коп старшего возраста, который торчит там еще с времен дикого запада, эпохи ковбоев и бандитов. Работа не простая, духи и разные бежавшие твари могут скрываться даже в мире живых, иногда переселившись в людские тела наши копы делают свое дела и в нашем мире, им все под силу, они же элита.-Файл
Качество: BDRip 1080p (исходник Blu-ray Disc Remux)
Видео: 1920x816, 11244 Кбит/сек, 60.000 кадр/сек, AVC, x264, High@L4.1, 2.35:1, 0.117 Бит/[Пиксели*Кадры]
Аудио 1: AC-3, 448 Кбит/сек, 6 канала(ов), 48,0 КГц - Дублированный / Русский
Аудио 2: AC-3, 448 Кбит/сек, 6 канала(ов), 48,0 КГц - Оригинал / Английский
Субтитры: Русские | Полные, Английские | Полные
Форсированные субтитры: Русские
Чаптеры (Главы): Есть-
Автор Рипа: Сообщество: -

Скриншоты

MediaInfo

Format : Matroska
Format version : Version 2
File size : 8.14 GiB
Duration : 1h 35mn
Overall bit rate : 12.1 Mbps
Movie name : Призрачный патруль.(2013).BDRip.1080p.[envy].[60fps]
Encoded date : UTC 2015-08-21 05:47:53
Writing application : mkvmerge v5.8.0 ('No Sleep / Pillow') built on Sep 2 2012 15:37:04
Writing library : libebml v1.2.3 + libmatroska v1.3.0
Video
ID : 1
Format : AVC
Format/Info : Advanced Video Codec
Format profile : High@L4.1
Format settings, CABAC : Yes
Format settings, ReFrames : 4 frames
Codec ID : V_MPEG4/ISO/AVC
Duration : 1h 35mn
Bit rate : 11.0 Mbps
Width : 1 920 pixels
Height : 816 pixels
Display aspect ratio : 2.35:1
Frame rate mode : Constant
Frame rate : 60.000 fps
Color space : YUV
Chroma subsampling : 4:2:0
Bit depth : 8 bits
Scan type : Progressive
Bits/(Pixel*Frame) : 0.117
Stream size : 7.37 GiB (91%)
Title : Призрачный патруль.(2013).BDRip.1080p.[envy].[60fps]
Writing library : x264 core 146 r2538 121396c
Encoding settings : cabac=1 / ref=4 / deblock=1:0:0 / analyse=0x3:0x113 / me=umh / subme=11 / psy=1 / psy_rd=1.00:0.00 / mixed_ref=1 / me_range=24 / chroma_me=1 / trellis=2 / 8x8dct=1 / cqm=0 / deadzone=21,11 / fast_pskip=1 / chroma_qp_offset=-2 / threads=12 / lookahead_threads=1 / sliced_threads=0 / nr=0 / decimate=1 / interlaced=0 / bluray_compat=0 / constrained_intra=0 / bframes=5 / b_pyramid=2 / b_adapt=2 / b_bias=0 / direct=3 / weightb=1 / open_gop=0 / weightp=2 / keyint=250 / keyint_min=25 / scenecut=40 / intra_refresh=0 / rc_lookahead=40 / rc=crf / mbtree=0 / crf=18.0 / qcomp=0.60 / qpmin=0 / qpmax=69 / qpstep=4 / vbv_maxrate=14000 / vbv_bufsize=14000 / crf_max=0.0 / nal_hrd=none / filler=0 / ip_ratio=1.40 / pb_ratio=1.30 / aq=3:1.00
Language : English
Default : Yes
Forced : No
Audio #1
ID : 2
Format : AC-3
Format/Info : Audio Coding 3
Mode extension : CM (complete main)
Format settings, Endianness : Big
Codec ID : A_AC3
Duration : 1h 35mn
Bit rate mode : Constant
Bit rate : 448 Kbps
Channel(s) : 6 channels
Channel positions : Front: L C R, Side: L R, LFE
Sampling rate : 48.0 KHz
Compression mode : Lossy
Stream size : 307 MiB (4%)
Title : Dub
Language : Russian
Default : Yes
Forced : No
Audio #2
ID : 3
Format : AC-3
Format/Info : Audio Coding 3
Mode extension : CM (complete main)
Format settings, Endianness : Big
Codec ID : A_AC3
Duration : 1h 35mn
Bit rate mode : Constant
Bit rate : 448 Kbps
Channel(s) : 6 channels
Channel positions : Front: L C R, Side: L R, LFE
Sampling rate : 48.0 KHz
Compression mode : Lossy
Stream size : 307 MiB (4%)
Title : Eng
Language : English
Default : No
Forced : No
Text #1
ID : 4
Format : UTF-8
Codec ID : S_TEXT/UTF8
Codec ID/Info : UTF-8 Plain Text
Title : Rus forced
Language : Russian
Default : Yes
Forced : Yes
Text #2
ID : 5
Format : UTF-8
Codec ID : S_TEXT/UTF8
Codec ID/Info : UTF-8 Plain Text
Title : Rus full
Language : Russian
Default : No
Forced : No
Text #3
ID : 6
Format : UTF-8
Codec ID : S_TEXT/UTF8
Codec ID/Info : UTF-8 Plain Text
Title : Eng full
Language : English
Default : No
Forced : No
Menu
00:00:00.000 : en:00:00:00.000
00:03:57.112 : en:00:03:57.112
00:09:13.136 : en:00:09:13.136
00:14:30.578 : en:00:14:30.578
00:17:58.411 : en:00:17:58.411
00:22:30.599 : en:00:22:30.599
00:27:09.503 : en:00:27:09.503
00:33:33.511 : en:00:33:33.511
00:38:46.157 : en:00:38:46.157
00:43:27.647 : en:00:43:27.647
00:46:31.747 : en:00:46:31.747
00:52:04.038 : en:00:52:04.038
00:55:52.099 : en:00:55:52.099
01:02:15.982 : en:01:02:15.982
01:07:01.100 : en:01:07:01.100
01:10:35.690 : en:01:10:35.690
01:13:16.309 : en:01:13:16.309
01:17:52.126 : en:01:17:52.126
01:23:00.934 : en:01:23:00.934
01:27:27.909 : en:01:27:27.909
 
Показать сообщения:    

Текущее время: 06-Дек 15:11

Часовой пояс: UTC + 3


Вы не можете начинать темы
Вы не можете отвечать на сообщения
Вы не можете редактировать свои сообщения
Вы не можете удалять свои сообщения
Вы не можете голосовать в опросах
Вы не можете прикреплять файлы к сообщениям
Вы не можете скачивать файлы