[Цитировать]
mimok

Призрачный гонщик / Ghost Rider (2007) BDRip 720p | 60fps«Когда-то он заключил сделку во имя любви»- Год выпуска: 2007
Производство: США, Австралия / Columbia Pictures Corporation, Marvel Enterprises
Жанр: Фэнтези, боевик, триллер-Режиссер: Марк Стивен Джонсон
Продюсер: Ави Арад, Майкл Де Лука, Гари Фостер
Актеры: Николас Кейдж, Ева Мендес, Уэс Бентли, Питер Фонда, Сэм Эллиотт, Мэтт Лонг, Ракель Алесси, Бретт Каллен, Донал Лог, Тони Гоустхок-Описание фильма:
Чтобы спасти своего отца от верной гибели, байкер-экстремал Джонни Блэйз заключает сделку с дьяволом, объектом которой является его бессмертная душа. Проходят годы, и дьявол предъявляет свои права по контракту. Он превращает Джонни в Призрачного Гонщика, агента потусторонних сил, обладающего сверхчеловеческими способностями.-Перевод: Профессиональный (Дублированный)
Субтитры: Вшитые, отключаемые
Язык субтитров: Русский (Full)- -Дата мировой премьеры: 15 января 2007
Дата российской премьеры: 15 февраля 2007, «BVSPR»
Дата выхода DVD релиза: 29 марта 2007, «Columbia/Sony»
Дата выхода Blu-Ray релиза: 4 октября 2007, «Columbia/Sony»-Продолжительность: 02:03:25
Качество видео: BDRip 720p-Видеокодек: MPEG-4 AVC/H.264
Битрейт видео: ~ 8309 Кбит/сек
Размер кадра: 1280 x 544
Аудио#1: AC3 5.1, 48.0 KHz, 384 Kbps - Профессиональный (дублированный) "Невафильм" & Иващенко Пётр Александрович (Гланц) & Королева Инна
Аудио#2: AC3 5.1, 48.0 KHz, 640 Kbps - Профессиональный (многоголосый, закадровый) Blu-ray-

MediaInfo

Общее
Уникальный идентификатор : 185295159003149752697073155031465261060 (0x8B668CADD42812C494283116F248F804)
Полное имя : D:\Торренты\Ghost Rider 60fps.mkv
Формат : Matroska
Версия формата : Version 2
Размер файла : 8,21 Гбайт
Продолжительность : 2 ч. 3 м.
Общий поток : 9523 Кбит/сек
Название фильма : Ghost Rider [Extended Cut] BDRemux 1080p
Дата кодирования : UTC 2014-10-26 18:59:05
Программа кодирования : mkvmerge v6.9.1 ('Blue Panther') 64bit built on Apr 18 2014 18:23:38
Библиотека кодирования : libebml v1.3.0 + libmatroska v1.4.1
Видео
Идентификатор : 1
Формат : AVC
Формат/Информация : Advanced Video Codec
Профиль формата : High@L4.1
Параметр CABAC формата : Да
Параметр ReFrames формата : 6 кадров
Идентификатор кодека : V_MPEG4/ISO/AVC
Продолжительность : 2 ч. 3 м.
Битрейт : 8309 Кбит/сек
Ширина : 1280 пикселей
Высота : 544 пикселя
Соотношение сторон : 2,35:1
Режим частоты кадров : Постоянный
Частота кадров : 59,880 кадров/сек
Частота кадров в оригинале : 59,940 кадров/сек
Цветовое пространство : YUV
Субдискретизация насыщенности : 4:2:0
Битовая глубина : 8 бит
Тип развёртки : Прогрессивная
Бит/(Пиксели*Кадры) : 0.199
Размер потока : 7,16 Гбайт (87%)
Заголовок : Release by mimok
Библиотека кодирования : x264 core 125 r2208 d9d2288
Настройки программы : cabac=1 / ref=6 / deblock=0:0:0 / analyse=0x3:0x133 / me=umh / subme=8 / psy=1 / psy_rd=1.00:0.15 / mixed_ref=1 / me_range=20 / chroma_me=1 / trellis=2 / 8x8dct=1 / cqm=0 / deadzone=21,11 / fast_pskip=0 / chroma_qp_offset=-3 / threads=6 / lookahead_threads=1 / sliced_threads=0 / nr=0 / decimate=0 / interlaced=0 / bluray_compat=0 / constrained_intra=0 / bframes=8 / b_pyramid=2 / b_adapt=2 / b_bias=0 / direct=1 / weightb=1 / open_gop=0 / weightp=2 / keyint=600 / keyint_min=59 / scenecut=40 / intra_refresh=0 / rc=crf / mbtree=0 / crf=17.0 / qcomp=0.63 / qpmin=10 / qpmax=51 / qpstep=4 / ip_ratio=1.40 / pb_ratio=1.30 / aq=1:1.20
Default : Да
Forced : Нет
Аудио #1
Идентификатор : 2
Формат : AC-3
Формат/Информация : Audio Coding 3
Расширение режима : CM (complete main)
Параметр Endianness формата : Big
Идентификатор кодека : A_AC3
Продолжительность : 2 ч. 3 м.
Вид битрейта : Постоянный
Битрейт : 384 Кбит/сек
Каналы : 6 каналов
Расположение каналов : Front: L C R, Side: L R, LFE
Частота : 48,0 КГц
Битовая глубина : 16 бит
Метод сжатия : С потерями
Размер потока : 339 Мбайт (4%)
Заголовок : Dub
Язык : Russian
Default : Да
Forced : Нет
Аудио #2
Идентификатор : 3
Формат : AC-3
Формат/Информация : Audio Coding 3
Расширение режима : CM (complete main)
Параметр Endianness формата : Big
Идентификатор кодека : A_AC3
Продолжительность : 2 ч. 3 м.
Вид битрейта : Постоянный
Битрейт : 640 Кбит/сек
Каналы : 6 каналов
Расположение каналов : Front: L C R, Side: L R, LFE
Частота : 48,0 КГц
Битовая глубина : 16 бит
Метод сжатия : С потерями
Размер потока : 565 Мбайт (7%)
Заголовок : MVO
Язык : Russian
Default : Нет
Forced : Нет
Текст
Идентификатор : 4
Формат : UTF-8
Идентификатор кодека : S_TEXT/UTF8
Идентификатор кодека/Информация : UTF-8 Plain Text
Заголовок : Full
Язык : Russian
Default : Да
Forced : Нет

Скринлист

Скриншоты:

[Цитировать]
pvn777

Привет всем )). Эх, как хотелось посмотреть в этом качестве... А сидов нет уже несколько дней ((

[Цитировать]
Kryl

3229Привет всем )). Эх, как хотелось посмотреть в этом качестве... А сидов нет уже несколько дней ((
Торрент файл заменен .
Следует загрузить торрент файл заново ..

[Цитировать]
mimok

pvn777, раздаю

[Цитировать]
pvn777

3232pvn777, раздаю
Благодарю, подключаюсь !!!

[Цитировать]
pvn777

3230
3229Привет всем )). Эх, как хотелось посмотреть в этом качестве... А сидов нет уже несколько дней ((
Торрент файл заменен .
Следует загрузить торрент файл заново ..
Голосовать деткам, которым меньше месяца, запрещено. А то дал бы плюсик в репку )). Ну а так, Благодарю.
 
Показать сообщения:    

Текущее время: 07-Дек 19:24

Часовой пояс: UTC + 3


Вы не можете начинать темы
Вы не можете отвечать на сообщения
Вы не можете редактировать свои сообщения
Вы не можете удалять свои сообщения
Вы не можете голосовать в опросах
Вы не можете прикреплять файлы к сообщениям
Вы не можете скачивать файлы