[Цитировать]
mimok

Призрачный гонщик 2 / Ghost Rider: Spirit of Vengeance (2011) BDRip 720p | 60fps«Он снова едет»- Год выпуска: 2011
Производство: США, ОАЭ / Columbia Pictures, Marvel Knights
Жанр: Фэнтези, боевик, триллер-Режиссер: Марк Невелдайн, Брайан Тейлор
Продюсер: Ашок Амритрадж, Ари Арад, Ави Арад
Актеры: Николас Кейдж, Кристофер Ламберт, Киаран Хайндс, Виоланте Плачидо, Джонни Витуорт, Идрис Эльба, Фергус Риордан, Спенсер Уидлинг, Сорин Тофан, Яцек Коман, Энтони Хэд, Кристиан Якоб, Джей Стефан, Винсент Риган, Уилл Эшкрофт, Сабина Брандусе, Адина Галупа, Элин Пэнк-Описание фильма:
Действие разворачивается на задворках Восточной Европы, где главный герой Джонни Блэйз безуспешно пытается справиться со своим проклятием. Его принимает на работу некая секта, которая пытается заполучить дьявола в тот момент, когда он пытается вселиться в тело его смертного сына на дне рождения мальчика.-Перевод: Дублированный (Лицензия)
Субтитры: Вшитые, отключаемые
Язык субтитров: Русский (Full)- -Дата мировой премьеры: 11 декабря 2011 США, Фестиваль Butt-Numb-A-Thon в Остине
Дата российской премьеры: 23 февраля 2012, «Централ Партнершип»
Дата выхода DVD релиза: 4 июня 2012, «Новый Диск»
Дата выхода Blu-Ray релиза: 4 июня 2012, «Новый Диск»-Продолжительность: 01:35:31
Качество видео: BDRip 720p-Видеокодек: MPEG-4 AVC/H.264
Битрейт видео: ~ 8477 Кбит/сек
Размер кадра: 1280 x 544
Аудио: AC3 5.1, 48.0 КГц, 640 Кбит/с - Русский-

MediaInfo

Общее
Уникальный идентификатор : 216837363877380937465264062276304189954 (0xA3215B7276FBB8509C0CC28929F53A02)
Полное имя : D:\Торренты\Ghost Rider.Spirit of Vengeance 60fps.mkv
Формат : Matroska
Версия формата : Version 2
Размер файла : 6,21 Гбайт
Продолжительность : 1 ч. 35 м.
Общий поток : 9303 Кбит/сек
Название фильма : Ghost Rider: Spirit of Vengeance (2011) 2D, 3D Blu-Ray
Дата кодирования : UTC 2014-11-03 18:46:30
Программа кодирования : mkvmerge v6.9.1 ('Blue Panther') 64bit built on Apr 18 2014 18:23:38
Библиотека кодирования : libebml v1.3.0 + libmatroska v1.4.1
Видео
Идентификатор : 1
Формат : AVC
Формат/Информация : Advanced Video Codec
Профиль формата : High@L4.1
Параметр CABAC формата : Да
Параметр ReFrames формата : 6 кадров
Идентификатор кодека : V_MPEG4/ISO/AVC
Продолжительность : 1 ч. 35 м.
Битрейт : 8477 Кбит/сек
Ширина : 1280 пикселей
Высота : 544 пикселя
Соотношение сторон : 2,35:1
Режим частоты кадров : Постоянный
Частота кадров : 59,880 кадров/сек
Частота кадров в оригинале : 59,940 кадров/сек
Цветовое пространство : YUV
Субдискретизация насыщенности : 4:2:0
Битовая глубина : 8 бит
Тип развёртки : Прогрессивная
Бит/(Пиксели*Кадры) : 0.203
Размер потока : 5,66 Гбайт (91%)
Заголовок : Release by mimok
Библиотека кодирования : x264 core 125 r2208 d9d2288
Настройки программы : cabac=1 / ref=6 / deblock=0:0:0 / analyse=0x3:0x133 / me=umh / subme=8 / psy=1 / psy_rd=1.00:0.15 / mixed_ref=1 / me_range=20 / chroma_me=1 / trellis=2 / 8x8dct=1 / cqm=0 / deadzone=21,11 / fast_pskip=0 / chroma_qp_offset=-3 / threads=6 / lookahead_threads=1 / sliced_threads=0 / nr=0 / decimate=0 / interlaced=0 / bluray_compat=0 / constrained_intra=0 / bframes=8 / b_pyramid=2 / b_adapt=2 / b_bias=0 / direct=1 / weightb=1 / open_gop=0 / weightp=2 / keyint=600 / keyint_min=59 / scenecut=40 / intra_refresh=0 / rc=crf / mbtree=0 / crf=17.0 / qcomp=0.63 / qpmin=10 / qpmax=51 / qpstep=4 / ip_ratio=1.40 / pb_ratio=1.30 / aq=1:1.20
Default : Да
Forced : Нет
Аудио
Идентификатор : 2
Формат : AC-3
Формат/Информация : Audio Coding 3
Расширение режима : CM (complete main)
Параметр Endianness формата : Big
Идентификатор кодека : A_AC3
Продолжительность : 1 ч. 35 м.
Вид битрейта : Постоянный
Битрейт : 640 Кбит/сек
Каналы : 6 каналов
Расположение каналов : Front: L C R, Side: L R, LFE
Частота : 48,0 КГц
Битовая глубина : 16 бит
Метод сжатия : С потерями
Размер потока : 437 Мбайт (7%)
Заголовок : Лицензия
Язык : Russian
Default : Да
Forced : Нет
Текст
Идентификатор : 3
Формат : UTF-8
Идентификатор кодека : S_TEXT/UTF8
Идентификатор кодека/Информация : UTF-8 Plain Text
Заголовок : Full
Язык : Russian
Default : Да
Forced : Нет

Скринлист

Скриншоты:
Время раздачи:По мере возможности


Последний раз редактировалось: mimok (2014-11-03 22:05), всего редактировалось 3 раз(а)

[Цитировать]
Kryl

Что за дубли ?
дорога в DTS ))

[Цитировать]
mimok

это одна и та же дорога,только в DTS-HD и в AC3(для тех у кого телек не тянет DTS)

[Цитировать]
Гость

Я вот что не пойму...
Может тут мне знатоки объяснят... ))))
Вы добавляете DTS-HD МА у которого ядро: DTS 1509 Кбит/сек O_O
Смысл?
На компьютере при просмотре некоторые проигрыватели просто виснут из за этого...
Распаковывайте в привычный DTS
для тех у кого телек не тянет DTS
Так же не все ТВ тянут упакованный DTS в DTS-HD

[Цитировать]
mimok

Убрал DTS, можете спать спокойно :hi:
 
Показать сообщения:    

Текущее время: 22-Июл 19:41

Часовой пояс: UTC + 3


Вы не можете начинать темы
Вы не можете отвечать на сообщения
Вы не можете редактировать свои сообщения
Вы не можете удалять свои сообщения
Вы не можете голосовать в опросах
Вы не можете прикреплять файлы к сообщениям
Вы не можете скачивать файлы