[Цитировать]
Kryl

«Земля - землянам!»- Информация
Название: Притяжение
Год выхода: 2017
Жанр: фантастика
Режиссер: Фёдор Бондарчук
Сценарий: Олег Маловичко, Андрей Золотарев
Продюсер: Фёдор Бондарчук, Дмитрий Рудовский, Михаил Врубель
В ролях: Ирина Старшенбаум, Александр Петров, Риналь Мухаметов, Олег Меньшиков, Евгений Сангаджиев, Алексей Маслодудов, Никита Кукушкин, Евгений Михеев, Антон Шпиньков, Евгений Коряковский
--Сюжет:
...Как только что стало известно, сбитый над Москвой неопознанный объект имеет, возможно, внеземное происхождение. Большая часть столичного Чертанова оцеплена, к месту крушения стягиваются представители силовых структур, решается вопрос об эвакуации местных жителей. По словам нашего источника в Минобороны, сейчас специальная комиссия пытается вступить в контакт с так называемыми «гостями». В эти минуты мы готовим экстренный выпуск новостей и о развитии событий вы узнаете первыми…- Страна: Россия
Продолжительность: 02:12:31

Файл
Кодек: MPEG4/ISO/AVC/H.264
Формат: MKV
Качество: BDRip 1080p | 60 fps
Видео: 1920 x 804 (2.388) | 60.000 fps | 22.0 Мбит/сек
Аудио: DTS | 5.1 | 48 kHz | 1509 kbps | 24 bit

MedifInfo

Видео
Идентификатор : 1
Формат : AVC
Формат/Информация : Advanced Video Codec
Профиль формата : High@L4.1
Параметр CABAC формата : Да
Параметр ReFrames формата : 5 кадров
Идентификатор кодека : V_MPEG4/ISO/AVC
Продолжительность : 2 ч. 12 м.
Битрейт : 22,0 Мбит/сек
Ширина : 1920 пикселей
Высота : 804 пикселя
Соотношение сторон : 2,40:1
Режим частоты кадров : Постоянный
Частота кадров : 60,000 кадров/сек
Цветовое пространство : YUV
Субдискретизация насыщенности : 4:2:0
Битовая глубина : 8 бит
Тип развёртки : Прогрессивная
Бит/(Пиксели*Кадры) : 0.238
Размер потока : 19,9 Гбайт (92%)
Заголовок : www.60-fps.org
Библиотека кодирования : x264 core 148 r2638 7599210
Настройки программы : cabac=1 / ref=5 / deblock=1:-3:-3 / analyse=0x3:0x113 / me=umh / subme=8 / psy=1 / psy_rd=1.00:0.25 / mixed_ref=1 / me_range=32 / chroma_me=1 / trellis=1 / 8x8dct=1 / cqm=0 / deadzone=6,6 / fast_pskip=1 / chroma_qp_offset=-4 / threads=12 / lookahead_threads=2 / sliced_threads=0 / nr=0 / decimate=0 / interlaced=0 / bluray_compat=0 / constrained_intra=0 / bframes=3 / b_pyramid=2 / b_adapt=2 / b_bias=0 / direct=3 / weightb=1 / open_gop=0 / weightp=2 / keyint=600 / keyint_min=59 / scenecut=40 / intra_refresh=0 / rc_lookahead=50 / rc=2pass / mbtree=1 / bitrate=21999 / ratetol=1.0 / qcomp=0.80 / qpmin=0 / qpmax=69 / qpstep=4 / cplxblur=20.0 / qblur=0.5 / vbv_maxrate=62500 / vbv_bufsize=78125 / nal_hrd=none / filler=0 / ip_ratio=1.10 / aq=1:0.50
Default : Да
Forced : Нет
Аудио
Идентификатор : 2
Формат : DTS
Формат/Информация : Digital Theater Systems
Режим : 16
Параметр Endianness формата : Big
Идентификатор кодека : A_DTS
Продолжительность : 2 ч. 12 м.
Вид битрейта : Постоянный
Битрейт : 1510 Кбит/сек
Каналы : 6 каналов
Расположение каналов : Front: L C R, Side: L R, LFE
Частота : 48,0 КГц
Битовая глубина : 24 бит
Метод сжатия : С потерями
Размер потока : 1,40 Гбайт (6%)
Заголовок : DTS 5.1 @ 1536 kbps - Blu-ray RUS
Язык : Russian
Default : Да
Forced : Нет
Меню
00:00:00.000 : en:
00:10:03.708 : en:
00:23:20.208 : en:
00:29:36.458 : en:
00:42:24.417 : en:
00:50:32.000 : en:
01:02:20.500 : en:
01:14:38.792 : en:
01:23:25.292 : en:
01:37:06.583 : en:
01:46:10.125 : en:
01:55:38.500 : en:

Релиз подготовлен 60 - fps

[Цитировать]
chaoshifi

720 запилите пожалуйста...
Посмотреть хочется, но медиацентр цуко лагает... Плачу

[Цитировать]
georg

Уважаемый Kryi, подскажите, будут ли программы в 3D 60fps ?

[Цитировать]
Kryl

7744720 запилите пожалуйста...
Посмотреть хочется, но медиацентр цуко лагает... Плачу
720P от меня не будет .
7745Уважаемый Kryi, подскажите, будут ли программы в 3D 60fps ?
Так как нет возможности проверять 3D , то я 3D и не делаю ...
Может в будущем что то поменяется .

[Цитировать]
goodwin_78

За раздачу спасибо , на 9 из 10. А тут можно в комментариях высказать о фильме всё что думаю ? Смеюсь
раздача просто хороша , но фильм... Злой Ни складу , ни ладу , ни смысловой нагрузги , ни логики в поступках..просто я думал , что наши фильмы не так хороши в плане спец эффектов как пиндосовские но зато у наших больше смысла , глубины , более приближены к реальной жизни. А тут я так понимаю как и в ''Защитники ''пошли по пиндосовской схеме - красочно , ярко , смысла нет правда... но пипл схавает Потею Сарказм

[Цитировать]
lmakl

Раздайте пжлст!))) Улыбаюсь

[Цитировать]
lmakl

Спасибо за релиз! Картинка на высоте!) Но всё остальное оставляет желать лутшего!)))
ПС: Защитники вообще днище!!!
 
Показать сообщения:    

Текущее время: 18-Окт 14:06

Часовой пояс: UTC + 3


Вы не можете начинать темы
Вы не можете отвечать на сообщения
Вы не можете редактировать свои сообщения
Вы не можете удалять свои сообщения
Вы не можете голосовать в опросах
Вы не можете прикреплять файлы к сообщениям
Вы не можете скачивать файлы