Стражи Галактики. Часть 2 / Guardians of the Galaxy Vol. 2 (2017) BDRip 1080p | 60 fps Пираты Карибского моря: Мертвецы не рассказывают сказки / Pirates of the Caribbean: Dead Men Tell No Tales (2017) BDRip 1080p | 60 fps Человек-паук: Возвращение домой / Spider-Man: Homecoming (2017) BDRip 1080p | 60 fps Валериан и город тысячи планет / Valerian and the City of a Thousand Planets (2017) BDRip 1080p | 60 fps Мстители: Эра Альтрона / Avengers: Age of Ultron (2015) BDRip 1080p | 60 fps Тор: Рагнарёк / Thor: Ragnarok (2017) BDRip 1080p | 60 fps Форсаж 8 / The Fate of the Furious (2017) BDRip 1080p | 60 fps Тёмная башня / The Dark Tower (2017) BDRip 720p | 60 fps
  1. Стаж:
    2 года 3 месяца
    Сообщений:
    5
    Пол:
    Мужской
    Фильм «They Weren't Born Yesterday!» Фильм- Информация
    Название: Пришельцы
    Оригинальное название: Les visiteurs
    Год выхода: 1993
    Жанр: фантастика, фэнтези, комедия
    Режиссер: Жан-Мари Пуаре
    Сценарий: Кристиан Клавье, Жан-Мари Пуаре
    Продюсер: Ален Терзян
    В ролях: Кристиан Клавье, Жан Рено, Валери Лемерсье, Мари-Анн Шазель, Кристиан Бюжо, Изабель Нанти, Жерар Сети, Дидье Пэн, Жан-Поль Мюэль, Ариель Семенофф
    --Сюжет:
    Франция 1122 год. Граф Годфруа де Монмирай став жертвой проклятия злой колдуньи, убивает отца своей невесты. Годфруа обращается за помощью к великому волшебнику Эвсебиусу, который предлагает графу отправиться по коридорам времени в прошлое и исправить свою ошибку.
    Де Монмирай соглашается на это предложение, но из-за ошибки волшебника он и его слуга попадают в 90-е годы нашего времени. В ХХ веке их ждет много приключений и встреча со своими потомками…
    - - Страна: Франция
    Продолжительность: 01:46:44

    Файл
    Кодек: MPEG4/ISO/AVC H.264
    Формат: MKV
    Качество: BDRip AVC | 60 fps
    Видео: 1024 x 432 | 59.940 fps | 3825 кбит/сек
    Аудио 1: AC3 | 48 kHz | 192 kbps | Дубляж
    Аудио 2: AC3 | 48 kHz | 256 kbps | Двухголосый |
    Аудио 3: AC3 | 44 kHz | 192 kbps | Французский |
    Субтитры: Русский

    MedifInfo

    Format : Matroska
    Format version : Version 4 / Version 2
    File size : 3.35 GiB
    Duration : 1h 46mn
    Overall bit rate : 4 498 Kbps
    Encoded date : UTC 2016-06-19 13:00:10
    Writing application : mkvmerge v9.2.0 ('Photograph') 64bit
    Writing library : libebml v1.3.3 + libmatroska v1.4.4
    Cover : Yes
    Attachments : cover.png
    Video
    ID : 1
    Format : AVC
    Format/Info : Advanced Video Codec
    Format profile : Baseline@L3.1
    Format settings, CABAC : No
    Format settings, ReFrames : 1 frame
    Codec ID : V_MPEG4/ISO/AVC
    Duration : 1h 46mn
    Bit rate : 3 825 Kbps
    Width : 1 024 pixels
    Height : 432 pixels
    Display aspect ratio : 2.40:1
    Frame rate mode : Constant
    Frame rate : 59.940 (59940/1000) fps
    Color space : YUV
    Chroma subsampling : 4:2:0
    Bit depth : 8 bits
    Scan type : Progressive
    Bits/(Pixel*Frame) : 0.144
    Stream size : 2.85 GiB (85%)
    Title : vk.com/60kadr
    Writing library : x264 core 146
    Encoding settings : cabac=0 / ref=1 / deblock=1:0:0 / analyse=0x1:0x1 / me=dia / subme=1 / psy=1 / psy_rd=1.00:0.00 / mixed_ref=0 / me_range=16 / chroma_me=1 / trellis=0 / 8x8dct=0 / cqm=0 / deadzone=21,11 / fast_pskip=1 / chroma_qp_offset=0 / threads=4 / lookahead_threads=1 / sliced_threads=0 / nr=0 / decimate=1 / interlaced=0 / bluray_compat=0 / constrained_intra=0 / bframes=0 / weightp=0 / keyint=250 / keyint_min=25 / scenecut=40 / intra_refresh=0 / rc=crf / mbtree=0 / crf=23.0 / qcomp=0.60 / qpmin=0 / qpmax=69 / qpstep=4 / ip_ratio=1.40 / aq=1:1.00
    Language : French
    Default : No
    Forced : No
    Audio #1
    ID : 2
    Format : AC-3
    Format/Info : Audio Coding 3
    Format profile : Dolby Digital
    Mode extension : CM (complete main)
    Format settings, Endianness : Big
    Codec ID : A_AC3
    Duration : 1h 46mn
    Bit rate mode : Constant
    Bit rate : 192 Kbps
    Channel(s) : 2 channels
    Channel positions : Front: L R
    Sampling rate : 48.0 KHz
    Frame rate : 31.250 fps (1536 spf)
    Compression mode : Lossy
    Stream size : 147 MiB (4%)
    Title : Дубляж
    Language : Russian
    Default : Yes
    Forced : No
    Audio #2
    ID : 3
    Format : AC-3
    Format/Info : Audio Coding 3
    Format profile : Dolby Digital
    Mode extension : CM (complete main)
    Format settings, Endianness : Big
    Codec ID : A_AC3
    Duration : 1h 46mn
    Bit rate mode : Constant
    Bit rate : 256 Kbps
    Channel(s) : 2 channels
    Channel positions : Front: L R
    Sampling rate : 48.0 KHz
    Frame rate : 31.250 fps (1536 spf)
    Compression mode : Lossy
    Stream size : 195 MiB (6%)
    Title : Двухголосый
    Language : Russian
    Default : No
    Forced : No
    Audio #3
    ID : 4
    Format : AC-3
    Format/Info : Audio Coding 3
    Mode extension : CM (complete main)
    Format settings, Endianness : Big
    Codec ID : A_AC3
    Duration : 1h 46mn
    Bit rate mode : Constant
    Bit rate : 192 Kbps
    Channel(s) : 2 channels
    Channel positions : Front: L R
    Sampling rate : 44.1 KHz
    Frame rate : 28.711 fps (1536 spf)
    Compression mode : Lossy
    Stream size : 147 MiB (4%)
    Title : Оригинал
    Language : French
    Default : No
    Forced : No
    Text
    ID : 5
    Format : PGS
    Muxing mode : zlib
    Codec ID : S_HDMV/PGS
    Codec ID/Info : Picture based subtitle format used on BDs/HD-DVDs
    Duration : 1h 43mn
    Bit rate : 28.9 Kbps
    Count of elements : 3427
    Stream size : 21.3 MiB (1%)
    Title : Русский
    Language : Russian
    Default : No
    Forced : No
    Просьба к переливающим на другие сайты, в оформлении указывайте пожалуйста авторство рипа - 60kadr


Вы не можете начинать темы
Вы не можете отвечать на сообщения
Вы не можете редактировать свои сообщения
Вы не можете удалять свои сообщения
Вы не можете голосовать в опросах
Вы не можете прикреплять файлы к сообщениям
Вы не можете скачивать файлы