1. Longevity:
    7 years
    Posts:
    2413
    Gender:
    Male
    Пришельцы 3: Взятие Бастилии / Les Visiteurs: La Revolution (2016)
    BDRip 720p | FRE Transfer | 60 fps
    - Информация
    Название: Пришельцы 3: Взятие Бастилии
    Оригинальное название: Les Visiteurs: La Revolution
    Год выхода: 2016
    Жанр: Комедия
    Режиссер: Жан-Мари Пуаре
    Сценарий: Кристиан Клавье, Жан-Мари Пуаре
    Продюсер: Сидони Дюма, Жан-Мари Пуаре, Дэвид Клейкенс
    В ролях: Кристиан Клавье, Жан Рено, Франк Дюбоск, Карин Вьяр, Сильви Тестю, Мари-Анн Шазель, Эри Абиттан, Алекс Лутс, Стефани де Крэенкур, Вероника Буланжер
    --Сюжет:
    Легендарные и любимые миллионами комедии «Пришельцы» и «Пришельцы 2: Коридоры времени» получили свое продолжение. Заключительная часть трилогии будет посвящена приключениям героев Жана Рено и Кристиана Клавье во времени, и на этот раз они попадут в одну из самых ярких эпох – время Великой Французской Революции. «Тот самый» качественный французский юмор, по которому скучали, блестящий актерский состав, пронизанный изящной иронией сценарий дают полное основание полагать, что современное прочтение культовых французских картин не оставит равнодушными ценителей жанра, поклонников легендарных актеров и всех любителей первоклассного европейского кино.- Страна: Франция
    Продолжительность: 01:49:29

    Файл
    Кодек: MPEG4/ISO/AVC H.264
    Формат: MKV
    Качество: BDRip 720p | 60 fps
    Видео: 1280 x 536 (2.388) | 60.000 fps | 8.0 Мбит/сек
    Аудио 1: AC3 | 5.1 | 48 kHz | 640 kbps | 16 bit | Дубляж |
    Аудио 2: AC3 | 5.1 | 48 kHz | 640 kbps | 16 bit | ENG |
    Субтитры: English

    MedifInfo

    Видео
    Идентификатор : 1
    Формат : AVC
    Формат/Информация : Advanced Video Codec
    Профиль формата : [email protected]
    Параметр CABAC формата : Да
    Параметр ReFrames формата : 5 кадров
    Идентификатор кодека : V_MPEG4/ISO/AVC
    Продолжительность : 1 ч. 49 м.
    Битрейт : 7999 Кбит/сек
    Ширина : 1280 пикселей
    Высота : 536 пикселей
    Соотношение сторон : 2,40:1
    Режим частоты кадров : Постоянный
    Частота кадров : 60,000 кадров/сек
    Цветовое пространство : YUV
    Субдискретизация насыщенности : 4:2:0
    Битовая глубина : 8 бит
    Тип развёртки : Прогрессивная
    Бит/(Пиксели*Кадры) : 0.194
    Размер потока : 5,98 Гбайт (84%)
    Заголовок : www.60-fps.org
    Библиотека кодирования : x264 core 148 r2638 7599210
    Настройки программы : cabac=1 / ref=5 / deblock=1:-3:-3 / analyse=0x3:0x113 / me=umh / subme=8 / psy=1 / psy_rd=1.00:0.25 / mixed_ref=1 / me_range=32 / chroma_me=1 / trellis=1 / 8x8dct=1 / cqm=0 / deadzone=6,6 / fast_pskip=1 / chroma_qp_offset=-4 / threads=12 / lookahead_threads=2 / sliced_threads=0 / nr=0 / decimate=0 / interlaced=0 / bluray_compat=0 / constrained_intra=0 / bframes=3 / b_pyramid=2 / b_adapt=2 / b_bias=0 / direct=3 / weightb=1 / open_gop=0 / weightp=2 / keyint=600 / keyint_min=59 / scenecut=40 / intra_refresh=0 / rc_lookahead=50 / rc=2pass / mbtree=1 / bitrate=7999 / ratetol=1.0 / qcomp=0.80 / qpmin=0 / qpmax=69 / qpstep=4 / cplxblur=20.0 / qblur=0.5 / vbv_maxrate=62500 / vbv_bufsize=78125 / nal_hrd=none / filler=0 / ip_ratio=1.10 / aq=1:0.50
    Default : Да
    Forced : Нет
    Аудио #1
    Идентификатор : 2
    Формат : AC-3
    Формат/Информация : Audio Coding 3
    Расширение режима : CM (complete main)
    Параметр Endianness формата : Big
    Идентификатор кодека : A_AC3
    Продолжительность : 1 ч. 49 м.
    Вид битрейта : Постоянный
    Битрейт : 640 Кбит/сек
    Каналы : 6 каналов
    Расположение каналов : Front: L C R, Side: L R, LFE
    Частота : 48,0 КГц
    Битовая глубина : 16 бит
    Метод сжатия : С потерями
    Размер потока : 501 Мбайт (7%)
    Заголовок : Дубляж
    Язык : Russian
    Default : Нет
    Forced : Нет
    Аудио #2
    Идентификатор : 3
    Формат : AC-3
    Формат/Информация : Audio Coding 3
    Расширение режима : CM (complete main)
    Параметр Endianness формата : Big
    Идентификатор кодека : A_AC3
    Продолжительность : 1 ч. 49 м.
    Вид битрейта : Постоянный
    Битрейт : 640 Кбит/сек
    Каналы : 6 каналов
    Расположение каналов : Front: L C R, Side: L R, LFE
    Частота : 48,0 КГц
    Битовая глубина : 16 бит
    Метод сжатия : С потерями
    Размер потока : 501 Мбайт (7%)
    Заголовок : French
    Язык : French
    Default : Нет
    Forced : Нет
    Меню
    00:00:00.000 : en:Chapter 1
    00:11:30.208 : en:Chapter 2
    00:18:02.250 : en:Chapter 3
    00:27:02.791 : en:Chapter 4
    00:36:10.708 : en:Chapter 5
    00:40:20.875 : en:Chapter 6
    00:52:28.208 : en:Chapter 7
    00:57:19.208 : en:Chapter 8
    01:07:22.041 : en:Chapter 9
    01:23:56.666 : en:Chapter 10
    01:36:39.750 : en:Chapter 11
    01:44:40.541 : en:Chapter 12

    Release was prepared by 60-fps.org

  2. Longevity:
    4 years 11 months
    Posts:
    110
    Gender:
    Male
    Спасибо за хорошую комедию!
    Надеемся увидеть и другие серии "Пришельцев" на этом сайте в 60 fps! :)
    25-Dec-2016 00:15 (after 23 hours)
  3. Longevity:
    7 years
    Posts:
    2413
    Gender:
    Male
    7126Спасибо за хорошую комедию!
    Надеемся увидеть и другие серии "Пришельцев" на этом сайте в 60 fps! :)
    1+2 части угарные , есть еще 3 типа в америке , та не очень понравилась , эту еще не смотрел .
    25-Dec-2016 00:21 (after 6 minutes)
  4. Longevity:
    4 years 7 months
    Posts:
    19
    Gender:
    Male
    Самый интересный 2
    29-Aug-2017 23:02 (after 8 months 4 days)


You cannot post new topics in this forum
You cannot reply to topics in this forum
You cannot edit your posts in this forum
You cannot delete your posts in this forum
You cannot vote in polls in this forum
You cannot attach files in this forum
You cannot download files in this forum