Приключения Паддингтона / Paddington
Год выпуска: 2014 г.
Жанр: комедия, приключения, семейный
Страна: Великобритания, Франция
Режиссер: Пол Кинг
Продолжительность: 01:35:12
Перевод: Профессиональный (дублированный)
В ролях: Бен Уишоу, Николь Кидман, Хью Бонневилль, Салли Хокинс, Джули Уолтерс, Мадлен Харрис, Сэмюэл Джослин, Джим Бродбент, Питер Капальди, Имелда Стонтон
Описание: Познакомьтесь, это медведь по имени Паддингтон из дремучего Перу. Он приехал в Лондон, чтобы обрести семью и стать настоящим английским джентльменом. На пути к этой цели его ожидают невероятные приключения, полные юмора и опасностей.
Формат видео: MKV
Качество видео: BDRip 1080p | 60fps
Видео кодек: H.264
Аудио кодек: AC3
Видео: 1920x800 (2.40:1), 59.940 fps, AVC, 8 000 Kbps
Аудио: AC3, 192 Kbps, 48.0 KHz, 2 ch, Дубляж, Чистый звук
Cубтитры Отсутствуют
В ролях:Бен Уишоу / Ben Whishaw[/url] (Paddington, озвучка), Николь Кидман / Nicole Kidman (Millicent), Хью Бонневилль / Hugh Bonneville (Henry Brown), Салли Хокинс / Sally Hawkins (Mary Brown), Джули Уолтерс / Julie Walters (Mrs. Bird), Мадлен Харрис / Madeleine Harris (Judy Brown), Сэмюэл Джослин / Samuel Joslin (Jonathan Brown), Джим Бродбент / Jim Broadbent (Mr. Gruber)

Отчёт MediaInfo

General
Complete name : Приключения Паддингтона 60fps.mkv
Format : Matroska
File size : 5.41 GiB
Duration : 1h 35mn
Overall bit rate : 8 138 Kbps
Encoded date : UTC 2015-03-25 13:34:19
Writing application : mkvmerge v7.7.0 ('Six Voices') 64bit built on Feb 28 2015 23:39:33
Writing library : libebml v1.3.1 + libmatroska v1.4.2
Video
ID : 1
Format : AVC
Format/Info : Advanced Video Codec
Format profile : High@L4.1
Format settings, CABAC : Yes
Format settings, ReFrames : 4 frames
Muxing mode : Container profile=Unknown@4.1
Codec ID : V_MPEG4/ISO/AVC
Duration : 1h 35mn
Bit rate : 8 000 Kbps
Width : 1 920 pixels
Height : 800 pixels
Display aspect ratio : 2.40:1
Frame rate : 59.940 fps
Color space : YUV
Chroma subsampling : 4:2:0
Bit depth : 8 bits
Scan type : Progressive
Bits/(Pixel*Frame) : 0.087
Stream size : 5.18 GiB (96%)
Writing library : x264 core 130 r2273 b3065e6
Encoding settings : cabac=1 / ref=4 / deblock=1:0:0 / analyse=0x3:0x113 / me=umh / subme=8 / psy=1 / psy_rd=1.00:0.10 / mixed_ref=1 / me_range=16 / chroma_me=0 / trellis=2 / 8x8dct=1 / cqm=0 / deadzone=21,11 / fast_pskip=1 / chroma_qp_offset=-3 / threads=12 / lookahead_threads=2 / sliced_threads=0 / nr=0 / decimate=0 / interlaced=0 / bluray_compat=0 / constrained_intra=0 / bframes=3 / b_pyramid=2 / b_adapt=2 / b_bias=0 / direct=1 / weightb=1 / open_gop=0 / weightp=2 / keyint=250 / keyint_min=25 / scenecut=40 / intra_refresh=0 / rc_lookahead=50 / rc=abr / mbtree=1 / bitrate=8000 / ratetol=1.0 / qcomp=0.60 / qpmin=0 / qpmax=69 / qpstep=4 / ip_ratio=1.40 / aq=1:0.90
Audio
ID : 2
Format : AC-3
Format/Info : Audio Coding 3
Mode extension : CM (complete main)
Codec ID : A_AC3
Duration : 1h 35mn
Bit rate mode : Constant
Bit rate : 192 Kbps
Channel(s) : 2 channels
Channel positions : Front: L R
Sampling rate : 48.0 KHz
Bit depth : 16 bits
Stream size : 131 MiB (2%)

Знаете ли Вы, что...

Первоначально медвежонка Паддингтона должен был озвучивать Хью Лори и Колин Фёрт.

[Цитировать]
ZHz

мне кажется или тут плавность лучше, чем в "Ночи в музее"?

[Цитировать]
BOT2

Да, всё верно! тут малость по лучше

[Цитировать]
ZHz

Ressident, сам скрипт менял?

[Цитировать]
BOT2

Нет, просто сделал как тут описано https://60-fps.org/viewtopic.php?t=352

[Цитировать]
ZHz

Ressident, ты использовал мой старый скрипт?

[Цитировать]
BOT2

Да, заменил на этот который твой и всё! А то я над прошлым издевался пытаясь настроить хорошую плавность - только больше испортил. Потом в видео заметил что когда качера идёт допустим слева на право..были децельные поддёргивания! И удали его заменив на этот, а вообще мне бы хотелось добиться максимальной плавности и при этом что бы артефактов вообще не было

[Цитировать]
ZHz

Ressident, добиться максимальной плавности без артефактов можно! Достаточно снять на камеру 60фпс (если поддерживает)
 
Показать сообщения:    

Текущее время: 08-Дек 19:09

Часовой пояс: UTC + 3


Вы не можете начинать темы
Вы не можете отвечать на сообщения
Вы не можете редактировать свои сообщения
Вы не можете удалять свои сообщения
Вы не можете голосовать в опросах
Вы не можете прикреплять файлы к сообщениям
Вы не можете скачивать файлы