Топ Топиков за 24 часа
 
SKILLED SLUT LOVES HER JOB (2017) Full HD 1080p | 60 fps SASHA FOXXX BLOWJOB (2017) Full HD 1080p | 60 fps BIG ASS CHICKS IN ACTION (2017) Full HD 1080p | 60 fps HOT BLACK GIRLS CREAMPIED(2017) Full HD 1080p | 60 fps DVJ BAZUKA - Tutti Frutti (2017) WEBRip 1080p | 60 fps Couple (2016) Full HD 1080p | 60 fps The Lesbian Bachelorette Episode 4 - Unison (2016) HD 1080p | 60 fps Dedicated Pledge (2017) Full HD 1080p | 60 fps Dakota Skye (2014) HD 720p | 60 fps Anita Bellini - Doubled Up (2015) HD 1080p | 60 fps Study Buddies (2016) HD 1080p | 60 fps Megan Rain (2017) Full HD 1080p | 60 fps
  1. Стаж:
    3 года 1 месяц
    Сообщений:
    2086
    Пол:
    Мужской
     
    Preppy Girl Threesome Get Three BBCs (2016) HD 1080p | 60 fps- Информация о ролике
    Название: Preppy Girl Threesome Get Three BBCs
    Год выхода: 2016
    Жанр: Orgy, Group, Threesome, Creampie, Deep Throat, Teen, Big Dick, IR, Hardcore
    В ролях: Elsa Jean, Rachel James, Sydney Cole
    Продолжительность: 00:40:05
    -Сюжет:
    Elsa, Rachel and Sydney are ready for their initiation into their chosen sorority. When they are faced with three huge black dicks, they know they have to make a good impression. They jerk them off in unison, before dropping to their knees to take as much black cock in their throats as they can. These three hot students are going to make sure these lucky dicks get totally satisfied! Elsa and Sydney climb aboard while Rachel gets it hard from behind as they all moan loudly, before Rachel joins their cowgirl game. When they all take it from behind together, the looks on their sweet faces tell just how deep these big dicks are getting. The three beauties suck and fuck their way through this trio of lucky cocks, making sure nobody is left out. Lastly they fuck all three in reverse begging for their loads of cum, which are delivered deep inside Rachel, followed by Sydney’s sweet little pussy and lastly Elsa’s yearning hole. The only question that remains is - will they make the grade?- Файл
    Кодек: MPEG4/ISO/AVC H.264
    Формат: MKV
    Качество: HD 1080p
    Видео: 1920 x 1080 (1.778) | 59.940 fps | 20.0 Мбит/сек
    Аудио: AC3 | 2.0 | 48.0 kHz | 192 kbps | 16 bit

    MedifInfo

    Видео
    Идентификатор : 1
    Формат : AVC
    Формат/Информация : Advanced Video Codec
    Профиль формата : High@L4.2
    Параметр CABAC формата : Да
    Параметр ReFrames формата : 3 кадра
    Идентификатор кодека : V_MPEG4/ISO/AVC
    Продолжительность : 40 м.
    Вид битрейта : Переменный
    Битрейт : 19,6 Мбит/сек
    Максимальный битрейт : 20,0 Мбит/сек
    Ширина : 1920 пикселей
    Высота : 1080 пикселей
    Соотношение сторон : 16:9
    Режим частоты кадров : Постоянный
    Частота кадров : 59,880 кадров/сек
    Частота кадров в оригинале : 59,940 кадров/сек
    Стандарт вещания : PAL
    Цветовое пространство : YUV
    Субдискретизация насыщенности : 4:2:0
    Битовая глубина : 8 бит
    Тип развёртки : Прогрессивная
    Бит/(Пиксели*Кадры) : 0.158
    Размер потока : 5,48 Гбайт (97%)
    Заголовок : www.60-fps.org
    Язык : English
    Default : Да
    Forced : Нет
    Основные цвета : BT.709
    Характеристики трансфера : BT.709
    Коэффициенты матрицы : BT.709
    colour_range : Limited
    Аудио
    Идентификатор : 2
    Формат : AC-3
    Формат/Информация : Audio Coding 3
    Расширение режима : CM (complete main)
    Параметр Endianness формата : Big
    Идентификатор кодека : A_AC3
    Продолжительность : 40 м.
    Вид битрейта : Постоянный
    Битрейт : 192 Кбит/сек
    Каналы : 2 канала
    Расположение каналов : Front: L R
    Частота : 48,0 КГц
    Битовая глубина : 16 бит
    Метод сжатия : С потерями
    Размер потока : 55,0 Мбайт (1%)
    Заголовок : AC3
    Язык : English
    Default : Да
    Forced : Нет

    Скриншоты

    Релиз подготовлен 60 - fps



Вы не можете начинать темы
Вы не можете отвечать на сообщения
Вы не можете редактировать свои сообщения
Вы не можете удалять свои сообщения
Вы не можете голосовать в опросах
Вы не можете прикреплять файлы к сообщениям
Вы не можете скачивать файлы