[Цитировать]
envy

Информация о фильме
Русское название: Правдивая ложь
Оригинальное название: True Lies
Год выхода: 1994
Жанр: боевик, триллер, комедия
Режиссер: Джеймс Кэмерон
Выпущено: США
Продолжительность: 02:21:58
Перевод: Дублированный, Профессиональный многоголосый, Авторский одноголосый
В ролях: Арнольд Шварценеггер, Джейми Ли Кертис, Том Арнольд, Билл Пэкстон, Тиа Каррере, Арт Малик, Элиза Душку, Грант Хеслов, Маршалл Манеш, Джеймс Аллен, Дитер Ротер, Джейн Моррис, Кэтси Чаппель, Кристина Уилер, Офер Самра, Пол Барселоу, Чарльз А. Тамбурро, Жан-Клод Парачини, Юзи Гал, Маджед Ибрагим, Армен Ксажикян, Майк Экрави, Майк Камерон, Чарльз Крагин, Лоуи Мардини, Джино Сальвано, Скотт Дотсон, Том Исбелл, Джон Бруно, Чарлтон Хестон, Мэри Эй ДеБрай, Ким Джансатерино, Эл Камарр, Дэйв Найт, Джоди Миллард, Андре Ниррнел, Эрик Парилло, Мануэль Перри, Чарли Пичерн-Сюжет фильма
Суперагент Генри Таскер (Арнольд Шварцнегер – “Терминатор”,”Хищник”, “Вспомнить всё”). В обычной жизни просто продавец компьютеров и примерный семьянин. Его супруга Хелен (Джейми Ли Кёртис – “Утопим Мону!”, ”Рыбка по имени Ванда”,”Чумовая пятница”) уверена, что Генри и мухи не обидит. Но неожиданно двойная жизнь Таскера заканчивается, когда он с женой оказывается в руках международных террористов.
Тут уж не до конспирации. Но этот раз ему придется нелегко, ведь надо не только спасти мир,но и Хелен. Да ещё ухитриться не поставить под удар собственный брак! А это не каждому под силу…
Cногосшибательный экшн гениального Джеймса Кэмерона наполненный потрясающими спецэффектами, перестрелками, бешеными погонями, вперемешку с искрометным юмором, ни минуты не даст Вам скучать.-Файл
Качество: BDRip 1080p (исходник Blu-ray Disc)
Видео: 1280x548, 5498 Кбит/сек, 59.940 кадр/сек, AVC, x264, High@L4.1, 2.35:1, 0.131 Бит/[Пиксели*Кадры]
Аудио 1: AC-3, 448 Кбит/сек, 6 канала(ов), 48,0 КГц - Дублированный / Русский
Аудио 2: AC-3, 448 Кбит/сек, 6 канала(ов), 48,0 КГц - Многоголосый закадровый, R5 "Lizard Cinema Trade" / Русский
Аудио 3: AC-3, 448 Кбит/сек, 6 канала(ов), 48,0 КГц - Многоголосый закадровый, Супербит/Киномания / Русский
Аудио 4: AC-3, 192 Кбит/сек, 2 канала(ов), 48,0 КГц - Многоголосый закадровый, Премьер Видео Фильм / Русский
Аудио 5: AC-3, 448 Кбит/сек, 6 канала(ов), 48,0 КГц - Многоголосый закадровый, НТВ+ / Русский
Аудио 6: AC-3, 448 Кбит/сек, 6 канала(ов), 48,0 КГц - Одноголосый закадровый, А.Гаврилов / Русский
Аудио 7: AC-3, 576 Кбит/сек, 6 канала(ов), 48,0 КГц - Оригинал / Английский
Субтитры: Русские | Полные, Английские | Полные
Форсированные субтитры: Нет
Чаптеры (Главы): Нет-
Автор Рипа: Сообщество:

MediaInfo

Format : Matroska
Format version : Version 2
File size : 8.61 GiB
Duration : 2h 21mn
Overall bit rate : 8 679 Kbps
Movie name : Правдивая ложь.(1994).BDRip.720p.[envy].[60fps]
Encoded date : UTC 2015-07-22 10:02:38
Writing application : mkvmerge v5.8.0 ('No Sleep / Pillow') built on Sep 2 2012 15:37:04
Writing library : libebml v1.2.3 + libmatroska v1.3.0
Video
ID : 1
Format : AVC
Format/Info : Advanced Video Codec
Format profile : High@L4.1
Format settings, CABAC : Yes
Format settings, ReFrames : 9 frames
Codec ID : V_MPEG4/ISO/AVC
Duration : 2h 21mn
Bit rate : 5 498 Kbps
Width : 1 280 pixels
Height : 548 pixels
Display aspect ratio : 2.35:1
Frame rate mode : Constant
Frame rate : 59.880 fps
Original frame rate : 59.940 fps
Color space : YUV
Chroma subsampling : 4:2:0
Bit depth : 8 bits
Scan type : Progressive
Bits/(Pixel*Frame) : 0.131
Stream size : 5.45 GiB (63%)
Title : Правдивая ложь.(1994).BDRip.720p.[envy].[60fps]
Writing library : x264 core 130 r2273 b3065e6
Encoding settings : cabac=1 / ref=9 / deblock=1:0:0 / analyse=0x3:0x113 / me=umh / subme=10 / psy=1 / psy_rd=1.00:0.00 / mixed_ref=1 / me_range=24 / chroma_me=1 / trellis=2 / 8x8dct=1 / cqm=0 / deadzone=21,11 / fast_pskip=0 / chroma_qp_offset=-2 / threads=12 / lookahead_threads=1 / sliced_threads=0 / nr=0 / decimate=1 / interlaced=0 / bluray_compat=0 / constrained_intra=0 / bframes=5 / b_pyramid=2 / b_adapt=2 / b_bias=0 / direct=3 / weightb=1 / open_gop=0 / weightp=2 / keyint=250 / keyint_min=25 / scenecut=40 / intra_refresh=0 / rc=crf / mbtree=0 / crf=18.0 / qcomp=0.60 / qpmin=0 / qpmax=69 / qpstep=4 / ip_ratio=1.40 / pb_ratio=1.30 / aq=1:1.00
Language : English
Default : Yes
Forced : No
Audio #1
ID : 2
Format : AC-3
Format/Info : Audio Coding 3
Mode extension : CM (complete main)
Format settings, Endianness : Big
Codec ID : A_AC3
Duration : 2h 21mn
Bit rate mode : Constant
Bit rate : 448 Kbps
Channel(s) : 6 channels
Channel positions : Front: L C R, Side: L R, LFE
Sampling rate : 48.0 KHz
Compression mode : Lossy
Stream size : 455 MiB (5%)
Title : Dub
Language : Russian
Default : Yes
Forced : Yes
Audio #2
ID : 3
Format : AC-3
Format/Info : Audio Coding 3
Mode extension : CM (complete main)
Format settings, Endianness : Big
Codec ID : A_AC3
Duration : 2h 21mn
Bit rate mode : Constant
Bit rate : 448 Kbps
Channel(s) : 6 channels
Channel positions : Front: L C R, Side: L R, LFE
Sampling rate : 48.0 KHz
Compression mode : Lossy
Stream size : 455 MiB (5%)
Title : Многоголосый [R5 "Lizard Cinema Trade"]
Language : Russian
Default : No
Forced : No
Audio #3
ID : 4
Format : AC-3
Format/Info : Audio Coding 3
Mode extension : CM (complete main)
Format settings, Endianness : Big
Codec ID : A_AC3
Duration : 2h 21mn
Bit rate mode : Constant
Bit rate : 448 Kbps
Channel(s) : 6 channels
Channel positions : Front: L C R, Side: L R, LFE
Sampling rate : 48.0 KHz
Compression mode : Lossy
Stream size : 455 MiB (5%)
Title : MVO Superbit/Kinomanija
Language : Russian
Default : No
Forced : No
Audio #4
ID : 5
Format : AC-3
Format/Info : Audio Coding 3
Mode extension : CM (complete main)
Format settings, Endianness : Big
Codec ID : A_AC3
Duration : 2h 21mn
Bit rate mode : Constant
Bit rate : 192 Kbps
Channel(s) : 2 channels
Channel positions : Front: L R
Sampling rate : 48.0 KHz
Compression mode : Lossy
Stream size : 195 MiB (2%)
Title : MVO Premer Video Film
Language : Russian
Default : No
Forced : No
Audio #5
ID : 6
Format : AC-3
Format/Info : Audio Coding 3
Mode extension : CM (complete main)
Format settings, Endianness : Big
Codec ID : A_AC3
Duration : 2h 21mn
Bit rate mode : Constant
Bit rate : 448 Kbps
Channel(s) : 6 channels
Channel positions : Front: L C R, Side: L R, LFE
Sampling rate : 48.0 KHz
Compression mode : Lossy
Stream size : 455 MiB (5%)
Title : MVO HTB+
Language : Russian
Default : No
Forced : No
Audio #6
ID : 7
Format : AC-3
Format/Info : Audio Coding 3
Mode extension : CM (complete main)
Format settings, Endianness : Big
Codec ID : A_AC3
Duration : 2h 21mn
Bit rate mode : Constant
Bit rate : 448 Kbps
Channel(s) : 6 channels
Channel positions : Front: L C R, Side: L R, LFE
Sampling rate : 48.0 KHz
Compression mode : Lossy
Stream size : 455 MiB (5%)
Title : AVO Andrej Gavrilov
Language : Russian
Default : No
Forced : No
Audio #7
ID : 8
Format : AC-3
Format/Info : Audio Coding 3
Mode extension : CM (complete main)
Format settings, Endianness : Big
Codec ID : A_AC3
Duration : 2h 21mn
Bit rate mode : Constant
Bit rate : 576 Kbps
Channel(s) : 6 channels
Channel positions : Front: L C R, Side: L R, LFE
Sampling rate : 48.0 KHz
Compression mode : Lossy
Stream size : 585 MiB (7%)
Title : Eng
Language : English
Default : No
Forced : No
Text #1
ID : 9
Format : UTF-8
Codec ID : S_TEXT/UTF8
Codec ID/Info : UTF-8 Plain Text
Title : Rus full
Language : Russian
Default : No
Forced : No
Text #2
ID : 10
Format : UTF-8
Codec ID : S_TEXT/UTF8
Codec ID/Info : UTF-8 Plain Text
Title : Eng full
Language : English
Default : No
Forced : No
[60-fps.org].t911.torrent
Торрент: Зарегистрирован [ 2015-07-28 10:53 ] · 1AB39F386054A7695D8F11BA5A86A30C0D800710

Скачать .torrent

Скачать

44 KB

Статус: проверено
Скачан: 77 раз
Поблагодарили:
Размер: 8,61 GB
 
 
Показать сообщения:    

Текущее время: 20-Фев 07:09

Часовой пояс: UTC + 3


Вы не можете начинать темы
Вы не можете отвечать на сообщения
Вы не можете редактировать свои сообщения
Вы не можете удалять свои сообщения
Вы не можете голосовать в опросах
Вы не можете прикреплять файлы к сообщениям
Вы можете скачивать файлы