[Цитировать]
Kryl

«Последний из рода рискнёт всем ради человечества»- Информация
Название: Повелитель стихий
Оригинальное название: The Last Airbender
Год выхода: 2010
Жанр: фэнтези, боевик, приключения, семейный
Режиссер: М. Найт Шьямалан
Сценарий: М. Найт Шьямалан
Продюсер: Фрэнк Маршалл, Сэм Мерсер, М. Найт Шьямалан
В ролях: Ноа Рингер, Дев Патель, Никола Пельтц, Джексон Рэтбоун, Шон Тоуб, Аасиф Мандви, Клифф Кёртис, Сейшелл Гэбриел, Кэтрин Хотон, Френсис Гуинан
--Сюжет:
Воздушные кочевники, Племя Воды, Царство Земли и Народ Огня. Четыре нации были связаны судьбой, когда Народ Огня начал жестокую войну против всех. Прошло сто лет без надежды что-то изменить в этом мире. Народ Огня почти близок к победе в войне.
Оказавшись между борьбой и храбростью, юный Аанг понимает, что он — Аватар, обладающий силой повелевать четырьмя стихиями, и то, что только он может вернуть баланс и восстановить мир на земле. Вместе с юной повелительницей воды Катарой и её братом Соккой он отправляется в путешествие.
- - Страна: США
Продолжительность: 01:43:13

Файл
Кодек: MPEG4/ISO/AVC H.264
Формат: MKV
Качество: BDRip 1080p (исходник Blu-ray Disc)
Видео: 1920x816 | 59.940 fps | 11.3 Мбит/сек
Аудио 1: AC3 | 5.1 | 48 kHz | 640 kbps | 16 bit | Дубляж |
Аудио 2: AC3 | 5.1 | 48 kHz | 640 kbps | 16 bit | ENG |
Субтитры: Русские | Полные, Английские | Полные

MedifInfo

Video
ID : 1
Format : AVC
Format/Info : Advanced Video Codec
Format profile : High@L4.1
Format settings, CABAC : Yes
Format settings, ReFrames : 4 frames
Codec ID : V_MPEG4/ISO/AVC
Duration : 1h 43mn
Bit rate : 11.3 Mbps
Width : 1 920 pixels
Height : 816 pixels
Display aspect ratio : 2.35:1
Frame rate mode : Constant
Frame rate : 59.880 fps
Original frame rate : 59.940 fps
Color space : YUV
Chroma subsampling : 4:2:0
Bit depth : 8 bits
Scan type : Progressive
Bits/(Pixel*Frame) : 0.120
Stream size : 8.14 GiB (88%)
Writing library : x264 core 146 r2538 121396c
Encoding settings : cabac=1 / ref=4 / deblock=1:0:0 / analyse=0x3:0x113 / me=umh / subme=10 / psy=1 / psy_rd=1.00:0.00 / mixed_ref=1 / me_range=24 / chroma_me=1 / trellis=2 / 8x8dct=1 / cqm=0 / deadzone=21,11 / fast_pskip=0 / chroma_qp_offset=-2 / threads=12 / lookahead_threads=1 / sliced_threads=0 / nr=0 / decimate=1 / interlaced=0 / bluray_compat=0 / constrained_intra=0 / bframes=5 / b_pyramid=2 / b_adapt=2 / b_bias=0 / direct=3 / weightb=1 / open_gop=0 / weightp=2 / keyint=250 / keyint_min=25 / scenecut=40 / intra_refresh=0 / rc_lookahead=40 / rc=crf / mbtree=0 / crf=18.0 / qcomp=0.60 / qpmin=0 / qpmax=69 / qpstep=4 / vbv_maxrate=14000 / vbv_bufsize=14000 / crf_max=0.0 / nal_hrd=none / filler=0 / ip_ratio=1.40 / pb_ratio=1.30 / aq=3:1.00
Language : English
Default : Yes
Forced : No
Audio #1
ID : 2
Format : AC-3
Format/Info : Audio Coding 3
Mode extension : CM (complete main)
Format settings, Endianness : Big
Codec ID : A_AC3
Duration : 1h 43mn
Bit rate mode : Constant
Bit rate : 640 Kbps
Channel(s) : 6 channels
Channel positions : Front: L C R, Side: L R, LFE
Sampling rate : 48.0 KHz
Compression mode : Lossy
Stream size : 473 MiB (5%)
Title : Dub
Language : Russian
Default : Yes
Forced : No
Audio #2
ID : 3
Format : AC-3
Format/Info : Audio Coding 3
Mode extension : CM (complete main)
Format settings, Endianness : Big
Codec ID : A_AC3
Duration : 1h 43mn
Bit rate mode : Constant
Bit rate : 640 Kbps
Channel(s) : 6 channels
Channel positions : Front: L C R, Side: L R, LFE
Sampling rate : 48.0 KHz
Compression mode : Lossy
Stream size : 473 MiB (5%)
Title : Eng
Language : English
Default : No
Forced : No
Text #1
ID : 4
Format : UTF-8
Codec ID : S_TEXT/UTF8
Codec ID/Info : UTF-8 Plain Text
Title : Rus full
Language : Russian
Default : No
Forced : No
Text #2
ID : 5
Format : UTF-8
Codec ID : S_TEXT/UTF8
Codec ID/Info : UTF-8 Plain Text
Title : Eng full
Language : English
Default : No
Forced : No
Menu
00:00:00.000 : en:00:00:00.000
00:11:45.371 : en:00:11:45.371
00:18:07.753 : en:00:18:07.753
00:26:34.635 : en:00:26:34.635
00:38:04.991 : en:00:38:04.991
00:51:10.985 : en:00:51:10.985
00:59:56.968 : en:00:59:56.968
01:09:05.725 : en:01:09:05.725
01:18:46.096 : en:01:18:46.096
01:28:10.494 : en:01:28:10.494
01:35:03.197 : en:01:35:03.197
 
Показать сообщения:    

Текущее время: 08-Дек 19:04

Часовой пояс: UTC + 3


Вы не можете начинать темы
Вы не можете отвечать на сообщения
Вы не можете редактировать свои сообщения
Вы не можете удалять свои сообщения
Вы не можете голосовать в опросах
Вы не можете прикреплять файлы к сообщениям
Вы не можете скачивать файлы