[Цитировать]
Kryl

«Некоторые двери лучше не открывать»- Информация
Название: Потерянная комната
Оригинальное название: The Lost Room
Год выхода: 2006
Жанр: Фантастика, Боевик, Детектив
Режиссер: Крэйг Р. Бэксли, Майкл В. Уоткинс
Сценарий: Лаура Хэркком, Кристофер Леоне, Пол Уоркмэн
Продюсер: Питер Чомски, Лаура Хэркком, Ричард Хатем
В ролях: Питер Джекобсон, Дэннис Кристофер, Эйприл Грэйс, Бенжамин Петри, Питер Краузе, Джулианна Маргулис, Кристофер Бауэр, Харриет Сэнсом Харрис, Маргарет Чо, Элль Фэннинг
--Сюжет:
Что если весь мир устроен не так просто, как нам кажется? Что если самые простые бытовые предметы обладают свойствами, которые не поддаются объяснению? И что если самый близкий Вам человек оказался в плену этих мистических событий?
Предлагаем вам присоединиться к детективу Джо Миллеру и другим героям новейшего телефильма «Пропавшая комната» и узнать всю правду о том, что случилось в десятом номере мотеля «Саншайн» и как это изменило судьбу всего мира.
- Страна: США
Продолжительность: 3 x ~01:27:00 (04:22:11)

1 серия - Ключ и Часы / The Key and the Clock - 01:27:41
2 серия - Расческа и Шкатулка / The Comb and the Box - 01:27:10
3 серия - Глаз и Главный объект / The Eye and the Prime Object - 01:27:19

Файл
Кодек: MPEG4/ISO/AVC H.264
Формат: MKV
Качество: WEBRip 720p | 60 fps
Видео: 1280 x 720 (1.778) | 59.940 fps | 5.0 Мбит/сек
Аудио: AC3 | 5.1 | 48 kHz | 384 kbps | 16 bit | Многоголосый закадровый, профессиональный (студия «Kravec») |

MedifInfo

Видео
Идентификатор : 1
Формат : AVC
Формат/Информация : Advanced Video Codec
Профиль формата : High@L4.1
Параметр CABAC формата : Да
Параметр ReFrames формата : 3 кадра
Идентификатор кодека : V_MPEG4/ISO/AVC
Продолжительность : 1 ч. 27 м.
Вид битрейта : Переменный
Битрейт : 4848 Кбит/сек
Максимальный битрейт : 5000 Кбит/сек
Ширина : 1280 пикселей
Высота : 720 пикселей
Соотношение сторон : 16:9
Режим частоты кадров : Постоянный
Частота кадров : 59,880 кадров/сек
Частота кадров в оригинале : 59,940 кадров/сек
Стандарт вещания : PAL
Цветовое пространство : YUV
Субдискретизация насыщенности : 4:2:0
Битовая глубина : 8 бит
Тип развёртки : Прогрессивная
Бит/(Пиксели*Кадры) : 0.088
Размер потока : 2,97 Гбайт (91%)
Заголовок : www.60-fps.org
Язык : English
Default : Да
Forced : Нет
Основные цвета : BT.709
Характеристики трансфера : BT.709
Коэффициенты матрицы : BT.709
colour_range : Limited
DURATION : 01:27:41.280000000
NUMBER_OF_FRAMES : 164416
NUMBER_OF_BYTES : 252542976
_STATISTICS_WRITING_APP : mkvmerge v7.6.0 ('Garden of Dreams') 32bit built on Feb 8 2015 12:51:39
_STATISTICS_WRITING_DATE_UTC : 2016-06-15 18:39:32
_STATISTICS_TAGS : BPS DURATION NUMBER_OF_FRAMES NUMBER_OF_BYTES
Аудио
Идентификатор : 2
Формат : AC-3
Формат/Информация : Audio Coding 3
Расширение режима : CM (complete main)
Параметр Endianness формата : Big
Идентификатор кодека : A_AC3
Продолжительность : 1 ч. 27 м.
Вид битрейта : Постоянный
Битрейт : 384 Кбит/сек
Каналы : 6 каналов
Расположение каналов : Front: L C R, Side: L R, LFE
Частота : 48,0 КГц
Битовая глубина : 16 бит
Метод сжатия : С потерями
Размер потока : 241 Мбайт (7%)
Заголовок : студия «Kravec»
Default : Да
Forced : Нет
Киношка сделана по заказу пользователя
вячеслав

Релиз подготовлен 60 - fps

[Цитировать]
tychoblin

Лучший сериал в мире
 
Показать сообщения:    

Текущее время: 10-Дек 19:39

Часовой пояс: UTC + 3


Вы не можете начинать темы
Вы не можете отвечать на сообщения
Вы не можете редактировать свои сообщения
Вы не можете удалять свои сообщения
Вы не можете голосовать в опросах
Вы не можете прикреплять файлы к сообщениям
Вы не можете скачивать файлы