Танго и Кэш / Tango & Cash (1989) BDRemux 1080p | 60 fps Агент Ева / Ava (2020) BDRip 1080p | 60 fps Властелин колец: Трилогия / The Lord of the Rings: Trilogy (2001-2003) BDRip-AVC | Extended Cut | 60 fps Девушка-невидимка / Shadow Girl (2019) BDRip 720p | 60 fps Не входи / The Owners(2020) BDRip 720p | 60 fps Думай как собака / Think Like a Dog (2020) BDRip 720p | 60 fps Вивариум / Vivarium (2019) BDRip 720p | 60 fps Где-то во времени / The Fare (2018) BDRip 720p | 60 fps
  1. Longevity:
    4 years 8 months
    Posts:
    1586
    Gender:
    Male
    Фильм «Где будешь ты?» Фильм- Информация
    Название: Послезавтра
    Оригинальное название: The Day After Tomorrow
    Год выхода: 2004
    Жанр: фантастика, триллер, драма, приключения
    Режиссер: Роланд Эммерих
    Сценарий: Роланд Эммерих, Джеффри Начманофф
    Продюсер: Роланд Эммерих, Марк Гордон, Уте Эммерих
    В ролях: Деннис Куэйд,Джейк Джилленхол,Эмми Россам,Дэш Майок,Джей О. Сэндерс,Села Уорд,Иэн Холм,Кеннет Уэлш,Гленн Пламмер,Адриан Лестер
    --Сюжет:
    Земля уверенно движется навстречу глобальной экологической катастрофе: в одной части света все живое погибает от засухи, в другой — разбушевавшаяся водная стихия сносит города.
    Близость катастрофы вынуждает ученого-климатолога, пытающегося найти способ остановить глобальное потепление, отправиться на поиски пропавшего сына в Нью-Йорк, в котором наступил новый ледниковый период…
    -- Страна: США
    Продолжительность: 02:03:41

    Файл
    Кодек: MPEG4/ISO/AVC H.264
    Формат: MKV
    Качество: BDRip 1080p | 60 fps
    Видео: 1920 x 816 (2.353) | 59.940 fps | 16,0 Мбит/сек
    Аудио 1: AC3 | 5.1 | 48 kHz | 640 Кбит/сек | 16 bit | Дубляж |
    Аудио 2: AC3 | 5.1 | 48 kHz | 640 Кбит/сек | 16 bit | ENG |
    Субтитры: Russian,English

    MedifInfo

    Видео
    Идентификатор : 1
    Формат : AVC
    Формат/Информация : Advanced Video Codec
    Профиль формата : [email protected]
    Параметр CABAC формата : Да
    Параметр ReFrames формата : 5 кадров
    Идентификатор кодека : V_MPEG4/ISO/AVC
    Продолжительность : 2 ч. 3 м.
    Битрейт : 16,0 Мбит/сек
    Ширина : 1920 пикселей
    Высота : 816 пикселей
    Соотношение сторон : 2,35:1
    Режим частоты кадров : Постоянный
    Частота кадров : 59,940 (59940/1000) кадров/сек
    Цветовое пространство : YUV
    Субдискретизация насыщенности : 4:2:0
    Битовая глубина : 8 бит
    Тип развёртки : Прогрессивная
    Бит/(Пиксели*Кадры) : 0.170
    Размер потока : 13,5 Гбайт (91%)
    Библиотека кодирования : x264 core 130 r2273 b3065e6
    Настройки программы : cabac=1 / ref=5 / deblock=1:-1:-1 / analyse=0x3:0 / me=umh / subme=9 / psy=1 / psy_rd=1.00:0.10 / mixed_ref=1 / me_range=24 / chroma_me=0 / trellis=1 / 8x8dct=1 / cqm=0 / deadzone=21,11 / fast_pskip=0 / chroma_qp_offset=-3 / threads=6 / lookahead_threads=1 / sliced_threads=0 / nr=0 / decimate=0 / interlaced=0 / bluray_compat=0 / constrained_intra=0 / bframes=5 / b_pyramid=2 / b_adapt=2 / b_bias=0 / direct=3 / weightb=1 / open_gop=0 / weightp=2 / keyint=250 / keyint_min=25 / scenecut=40 / intra_refresh=0 / rc=2pass / mbtree=0 / bitrate=16000 / ratetol=1.0 / qcomp=0.60 / qpmin=0 / qpmax=69 / qpstep=4 / cplxblur=20.0 / qblur=0.5 / ip_ratio=1.40 / pb_ratio=1.30 / aq=1:0.90
    Язык : English
    Default : Да
    Forced : Нет
    Аудио #1
    Идентификатор : 2
    Формат : AC-3
    Формат/Информация : Audio Coding 3
    Расширение режима : CM (complete main)
    Параметр Endianness формата : Big
    Идентификатор кодека : A_AC3
    Продолжительность : 2 ч. 3 м.
    Вид битрейта : Постоянный
    Битрейт : 640 Кбит/сек
    Каналы : 6 каналов
    Расположение каналов : Front: L C R, Side: L R, LFE
    Частота : 48,0 КГц
    Частота кадров : 31,250 кадров/сек (1536 spf)
    Битовая глубина : 16 бит
    Метод сжатия : С потерями
    Размер потока : 566 Мбайт (4%)
    Заголовок : DUB
    Язык : Russian
    Default : Да
    Forced : Нет
    Аудио #2
    Идентификатор : 5
    Формат : AC-3
    Формат/Информация : Audio Coding 3
    Расширение режима : CM (complete main)
    Параметр Endianness формата : Big
    Идентификатор кодека : A_AC3
    Продолжительность : 2 ч. 3 м.
    Вид битрейта : Постоянный
    Битрейт : 640 Кбит/сек
    Каналы : 6 каналов
    Расположение каналов : Front: L C R, Side: L R, LFE
    Частота : 48,0 КГц
    Частота кадров : 31,250 кадров/сек (1536 spf)
    Битовая глубина : 16 бит
    Метод сжатия : С потерями
    Размер потока : 566 Мбайт (4%)
    Заголовок : Original
    Язык : English
    Default : Нет
    Forced : Нет
    Текст #1
    Идентификатор : 3
    Формат : UTF-8
    Идентификатор кодека : S_TEXT/UTF8
    Идентификатор кодека/Информация : UTF-8 Plain Text
    Заголовок : Full
    Язык : Russian
    Default : Нет
    Forced : Нет
    Текст #2
    Идентификатор : 4
    Формат : ASS
    Идентификатор кодека : S_TEXT/ASS
    Идентификатор кодека/Информация : Advanced Sub Station Alpha
    Метод сжатия : Без потерь
    Заголовок : Full
    Язык : English
    Default : Нет
    Forced : Нет
    Меню
    00:00:00.000 : en:Chapter 1
    00:03:07.562 : en:Chapter 2
    00:06:15.792 : en:Chapter 3
    00:09:17.181 : en:Chapter 4
    00:12:04.432 : en:Chapter 5
    00:15:42.733 : en:Chapter 6
    00:18:37.699 : en:Chapter 7
    00:20:45.661 : en:Chapter 8
    00:22:41.401 : en:Chapter 9
    00:24:13.326 : en:Chapter 10
    00:31:22.922 : en:Chapter 11
    00:38:26.303 : en:Chapter 12
    00:42:14.948 : en:Chapter 13
    00:48:08.010 : en:Chapter 14
    00:51:15.655 : en:Chapter 15
    00:54:12.415 : en:Chapter 16
    01:03:00.151 : en:Chapter 17
    01:06:22.353 : en:Chapter 18
    01:08:09.835 : en:Chapter 19
    01:11:26.615 : en:Chapter 20
    01:13:40.248 : en:Chapter 21
    01:17:46.995 : en:Chapter 22
    01:20:52.430 : en:Chapter 23
    01:24:08.001 : en:Chapter 24
    01:27:57.647 : en:Chapter 25
    01:29:35.870 : en:Chapter 26
    01:32:18.616 : en:Chapter 27
    01:38:42.958 : en:Chapter 28
    01:41:34.463 : en:Chapter 29
    01:46:57.911 : en:Chapter 30
    01:50:41.676 : en:Chapter 31
    01:55:38.598 : en:Chapter 32
    02:03:39.411 : en:Chapter 33


You cannot post new topics in this forum
You cannot reply to topics in this forum
You cannot edit your posts in this forum
You cannot delete your posts in this forum
You cannot vote in polls in this forum
You cannot attach files in this forum
You cannot download files in this forum