Агент Ева / Ava (2020) BDRip 1080p | 60 fps Танго и Кэш / Tango & Cash (1989) BDRemux 1080p | 60 fps Властелин колец: Трилогия / The Lord of the Rings: Trilogy (2001-2003) BDRip-AVC | Extended Cut | 60 fps Ультрафиолет / Ultraviolet (2006) BDRip 1080p | 60 fps Девушка-невидимка / Shadow Girl (2019) BDRip 720p | 60 fps Не входи / The Owners(2020) BDRip 720p | 60 fps Вивариум / Vivarium (2019) BDRip 720p | 60 fps Где-то во времени / The Fare (2018) BDRip 720p | 60 fps
  1. Longevity:
    6 years 7 months
    Posts:
    2414
    Gender:
    Male
    «Месть — путешествие без возврата»
    RUS Transfer
    - Информация
    Название: Последствия
    Оригинальное название: Aftermath
    Год выхода: 2017
    Жанр: Триллер, драма
    Режиссер: Эллиотт Лестер
    Сценарий: Хавьер Гульон
    Продюсер: Даррен Аронофски, Peter Dealbert, Рэндолл Эмметт
    В ролях: Арнольд Шварценеггер, Мэгги Грэйс, Кевин Зегерс, Скут МакНэри, Ханна Уэр, Мариана Клавено, Гленн Моршауэр, Ларри Салливан, Мартин Донован, Мо
    --Сюжет:
    Не смотрите на то, что в титрах числится Арнольд Шварценеггер, хорошо известный герой кинобоевиков. Этот фильм совершенно иного плана. На этот раз задачей "железного Арни" стало создание образа работяги, глубоко страдающего из-за трагической гибели всей своей родни. Роман Мельник, чтобы обеспечить свою семью, переехал в далекую Америку, где трудится день и ночь на стройке. Спустя несколько лет к нему на чужбине должны присоединиться жена, дочь и не родившийся еще внук. Роман счастлив, как никогда, едет в аэропорт и тут все рушится. Самолет с его родными столкнулся в воздухе с другим самолетом. В то же время авторы фильма показывают нам переживания и страхи Джейка – виновника авиакатастрофы. Его жизнь теперь сломана. От счастливого отца семейства ушла жена, его ждет суд, начальство хочет "умыть руки" и предлагает ему удрать из города. Что случится, если эти двое встретятся? Фильм основан на реальных событиях- Страна: Франция
    Продолжительность: 01:33:59

    Файл
    Кодек: MPEG4/ISO/AVC/H.264
    Формат: MKV
    Качество: BDRip 720p | 60 fps
    Видео: 1280 x 536 (2.388) | 60.000 fps | 8.0 Мбит/сек
    Аудио: AC3 | 5.1 | 48 kHz | 640 kbps | 16 bit | Дубляж |

    MedifInfo

    Видео
    Идентификатор : 1
    Формат : AVC
    Формат/Информация : Advanced Video Codec
    Профиль формата : [email protected]
    Параметр CABAC формата : Да
    Параметр ReFrames формата : 5 кадров
    Идентификатор кодека : V_MPEG4/ISO/AVC
    Продолжительность : 1 ч. 33 м.
    Битрейт : 7999 Кбит/сек
    Ширина : 1280 пикселей
    Высота : 536 пикселей
    Соотношение сторон : 2,40:1
    Режим частоты кадров : Постоянный
    Частота кадров : 60,000 кадров/сек
    Цветовое пространство : YUV
    Субдискретизация насыщенности : 4:2:0
    Битовая глубина : 8 бит
    Тип развёртки : Прогрессивная
    Бит/(Пиксели*Кадры) : 0.194
    Размер потока : 5,13 Гбайт (91%)
    Заголовок : www.60-fps.org
    Библиотека кодирования : x264 core 148 r2744 b97ae06
    Настройки программы : cabac=1 / ref=5 / deblock=1:-3:-3 / analyse=0x3:0x113 / me=umh / subme=8 / psy=1 / psy_rd=1.00:0.25 / mixed_ref=1 / me_range=32 / chroma_me=1 / trellis=1 / 8x8dct=1 / cqm=0 / deadzone=6,6 / fast_pskip=1 / chroma_qp_offset=-4 / threads=12 / lookahead_threads=2 / sliced_threads=0 / nr=0 / decimate=0 / interlaced=0 / bluray_compat=0 / constrained_intra=0 / bframes=3 / b_pyramid=2 / b_adapt=1 / b_bias=0 / direct=3 / weightb=1 / open_gop=0 / weightp=2 / keyint=600 / keyint_min=59 / scenecut=40 / intra_refresh=0 / rc_lookahead=50 / rc=2pass / mbtree=1 / bitrate=7999 / ratetol=1.0 / qcomp=0.80 / qpmin=0 / qpmax=69 / qpstep=4 / cplxblur=20.0 / qblur=0.5 / vbv_maxrate=62500 / vbv_bufsize=78125 / nal_hrd=none / filler=0 / ip_ratio=1.10 / aq=1:0.50
    Default : Да
    Forced : Нет
    Аудио
    Идентификатор : 2
    Формат : AC-3
    Формат/Информация : Audio Coding 3
    Расширение режима : CM (complete main)
    Параметр Endianness формата : Big
    Идентификатор кодека : A_AC3
    Продолжительность : 1 ч. 33 м.
    Вид битрейта : Постоянный
    Битрейт : 640 Кбит/сек
    Каналы : 6 каналов
    Расположение каналов : Front: L C R, Side: L R, LFE
    Частота : 48,0 КГц
    Битовая глубина : 16 бит
    Метод сжатия : С потерями
    Размер потока : 430 Мбайт (7%)
    Заголовок : Дубляж
    Язык : Russian
    Default : Да
    Forced : Нет
    Меню
    00:00:00.000 : en:1
    00:01:14.000 : en:2
    00:10:56.000 : en:3
    00:22:51.000 : en:4
    00:33:46.000 : en:5
    00:42:42.000 : en:6
    00:54:19.000 : en:7
    01:03:37.000 : en:8
    01:13:49.000 : en:9
    01:27:54.000 : en:10

    Release was prepared by 60-fps.org



    Last edited by Kryl on 2017-05-22 06:27; edited 1 time in total
  2. Longevity:
    4 years 8 months
    Posts:
    1586
    Gender:
    Male
    Щас качну... ! Хитренький
    22-May-2017 08:43 (after 1 day 1 hour)
  3. Longevity:
    4 years 4 months
    Posts:
    45
    Gender:
    Male
    Разочарован. Ожидал лучшего, тем более на основе реальных событий. Спасибо за раздачу
    06-Aug-2017 18:12 (after 2 months 15 days)


You cannot post new topics in this forum
You cannot reply to topics in this forum
You cannot edit your posts in this forum
You cannot delete your posts in this forum
You cannot vote in polls in this forum
You cannot attach files in this forum
You cannot download files in this forum