[Цитировать]
Kryl

«No more fairy tales, this is reality»- Информация о фильме
Название: Последняя фантазия: Духи внутри
Оригинальное название: Final Fantasy: The Spirits Within
Год выхода: 2001
Жанр: Мультфильм, фантастика, фэнтези, боевик, триллер, приключения, полнометражный
Режиссер: Хиронобу Сакагути, Мото Сакакибара
Сценарий: Эл Райнерт, Джеф Винтар, Хиронобу Сакагути
Продюсер: Джан Айда, Крис Ли, Акио Сакаи
Персонажи: Минг-На, Алек Болдуин, Винг Рэймс, Стив Бушеми, Peri Gilpin, Дональд Сазерленд, Джеймс Вудс, Кейт Дэвид, Жан Симмонс, Мэтт МакКензи, Джон ДеМита, John Di Maggio, Алекс Фернандез, Дэвид Рэснер, Дуайт Шульц, Энни Ву
--О фильме:
Земля, год 2065… Планета в страшной опасности. На родину человечества напали монстры-фантомы из космоса, которым невозможно противостоять. Полупрозрачные чудовища, более похожие на порождения галлюцинирующего мозга, уже истребили большую часть человечества и скоро их господство над Землей станет полным.
Судьба мира в руках горстки смельчаков — ученой Аки Росс, доктора Сиди и техноспецназа капитана Эдвардса, вступающих в последнее сражение с инопланетной нечистью.
- - Страна: США, Япония
Продолжительность: 01:45:58
-- Файл
Кодек: MPEG4/ISO/AVC H.264
Формат: MKV
Качество: BDRip 720p
Видео: 1280 x 690 (1.855) | at 59,940 fps | 11.5 Мбит/сек
Аудио 1: AC3 | 5.1 | 48 kHz | 640 Кбит/сек | 16 bit | Дублированный |
Аудио 2: AC3 | 5.1 | 48 kHz | 640 Кбит/сек | 16 bit | Многоголосый закадровый, Blu-ray CEE |
Аудио 3: AC3 | 5.1 | 48 kHz | 640 Кбит/сек | 16 bit | Многоголосый закадровый, Карусель |
Аудио 4: AC3 | 5.1 | 48 kHz | 640 Кбит/сек | 16 bit | Авторский Дмитрий «Гоблин» Пучков |
Аудио 5: AC3 | 5.1 | 48 kHz | 640 Кбит/сек | 16 bit | Авторский П. Гланц |
Аудио 6: AC3 | 5.1 | 48 kHz | 640 Кбит/сек | 16 bit | Авторский Ю. Живов |
Аудио 7: AC3 | 5.1 | 48 kHz | 640 Кбит/сек | 16 bit | ENG |
Субтитры: Русские (форсированные), Русские (Вита Алая)

MedifInfo

Видео
Идентификатор : 1
Формат : AVC
Формат/Информация : Advanced Video Codec
Профиль формата : Main@L4.1
Параметр CABAC формата : Да
Параметр ReFrames формата : 3 кадра
Идентификатор кодека : V_MPEG4/ISO/AVC
Продолжительность : 1 ч. 45 м.
Битрейт : 11,5 Мбит/сек
Ширина : 1280 пикселей
Высота : 690 пикселей
Соотношение сторон : 1,85:1
Режим частоты кадров : Постоянный
Частота кадров : 59,880 кадров/сек
Частота кадров в оригинале : 59,940 кадров/сек
Стандарт вещания : PAL
Цветовое пространство : YUV
Субдискретизация насыщенности : 4:2:0
Битовая глубина : 8 бит
Тип развёртки : Прогрессивная
Бит/(Пиксели*Кадры) : 0.217
Размер потока : 8,51 Гбайт (71%)
Заголовок : www.60-fps.org
Язык : English
Default : Да
Forced : Нет
Основные цвета : BT.709
Характеристики трансфера : BT.709
Коэффициенты матрицы : BT.709
colour_range : Limited
Аудио #1
Идентификатор : 2
Формат : AC-3
Формат/Информация : Audio Coding 3
Расширение режима : CM (complete main)
Параметр Endianness формата : Big
Идентификатор кодека : A_AC3
Продолжительность : 1 ч. 45 м.
Вид битрейта : Постоянный
Битрейт : 640 Кбит/сек
Каналы : 6 каналов
Расположение каналов : Front: L C R, Side: L R, LFE
Частота : 48,0 КГц
Битовая глубина : 16 бит
Метод сжатия : С потерями
Размер потока : 485 Мбайт (4%)
Заголовок : Дубляж
Язык : Russian
Default : Да
Forced : Нет
Аудио #2
Идентификатор : 3
Формат : AC-3
Формат/Информация : Audio Coding 3
Расширение режима : CM (complete main)
Параметр Endianness формата : Big
Идентификатор кодека : A_AC3
Продолжительность : 1 ч. 45 м.
Вид битрейта : Постоянный
Битрейт : 640 Кбит/сек
Каналы : 6 каналов
Расположение каналов : Front: L C R, Side: L R, LFE
Частота : 48,0 КГц
Битовая глубина : 16 бит
Метод сжатия : С потерями
Размер потока : 485 Мбайт (4%)
Заголовок : Многоголосый закадровый, Blu-ray CEE
Язык : Russian
Default : Нет
Forced : Нет
Аудио #3
Идентификатор : 4
Формат : AC-3
Формат/Информация : Audio Coding 3
Расширение режима : CM (complete main)
Параметр Endianness формата : Big
Идентификатор кодека : A_AC3
Продолжительность : 1 ч. 45 м.
Вид битрейта : Постоянный
Битрейт : 640 Кбит/сек
Каналы : 6 каналов
Расположение каналов : Front: L C R, Side: L R, LFE
Частота : 48,0 КГц
Битовая глубина : 16 бит
Метод сжатия : С потерями
Размер потока : 485 Мбайт (4%)
Заголовок : Многоголосый закадровый, Карусель
Язык : Russian
Default : Нет
Forced : Нет
Аудио #4
Идентификатор : 5
Формат : AC-3
Формат/Информация : Audio Coding 3
Расширение режима : CM (complete main)
Параметр Endianness формата : Big
Идентификатор кодека : A_AC3
Продолжительность : 1 ч. 45 м.
Вид битрейта : Постоянный
Битрейт : 640 Кбит/сек
Каналы : 6 каналов
Расположение каналов : Front: L C R, Side: L R, LFE
Частота : 48,0 КГц
Битовая глубина : 16 бит
Метод сжатия : С потерями
Размер потока : 485 Мбайт (4%)
Заголовок : Авторский Дмитрий «Гоблин» Пучков
Язык : Russian
Default : Нет
Forced : Нет
Аудио #5
Идентификатор : 6
Формат : AC-3
Формат/Информация : Audio Coding 3
Расширение режима : CM (complete main)
Параметр Endianness формата : Big
Идентификатор кодека : A_AC3
Продолжительность : 1 ч. 45 м.
Вид битрейта : Постоянный
Битрейт : 640 Кбит/сек
Каналы : 6 каналов
Расположение каналов : Front: L C R, Side: L R, LFE
Частота : 48,0 КГц
Битовая глубина : 16 бит
Метод сжатия : С потерями
Размер потока : 485 Мбайт (4%)
Заголовок : Авторский П. Гланц
Язык : Russian
Default : Нет
Forced : Нет
Аудио #6
Идентификатор : 7
Формат : AC-3
Формат/Информация : Audio Coding 3
Расширение режима : CM (complete main)
Параметр Endianness формата : Big
Идентификатор кодека : A_AC3
Продолжительность : 1 ч. 45 м.
Вид битрейта : Постоянный
Битрейт : 640 Кбит/сек
Каналы : 6 каналов
Расположение каналов : Front: L C R, Side: L R, LFE
Частота : 48,0 КГц
Битовая глубина : 16 бит
Метод сжатия : С потерями
Размер потока : 485 Мбайт (4%)
Заголовок : Авторский Ю. Живов
Язык : Russian
Default : Нет
Forced : Нет
Аудио #7
Идентификатор : 8
Формат : AC-3
Формат/Информация : Audio Coding 3
Расширение режима : CM (complete main)
Параметр Endianness формата : Big
Идентификатор кодека : A_AC3
Продолжительность : 1 ч. 45 м.
Вид битрейта : Постоянный
Битрейт : 640 Кбит/сек
Каналы : 6 каналов
Расположение каналов : Front: L C R, Side: L R, LFE
Частота : 48,0 КГц
Битовая глубина : 16 бит
Метод сжатия : С потерями
Размер потока : 485 Мбайт (4%)
Заголовок : English
Язык : English
Default : Нет
Forced : Нет
Текст #1
Идентификатор : 9
Формат : UTF-8
Идентификатор кодека : S_TEXT/UTF8
Идентификатор кодека/Информация : UTF-8 Plain Text
Заголовок : Русские форсированные
Язык : Russian
Default : Да
Forced : Нет
Текст #2
Идентификатор : 10
Формат : UTF-8
Идентификатор кодека : S_TEXT/UTF8
Идентификатор кодека/Информация : UTF-8 Plain Text
Заголовок : Русские (Вита Алая)
Язык : Russian
Default : Нет
Forced : Нет
Меню
00:00:00.000 : en:00:00:00.000
00:10:02.101 : en:00:10:02.101
00:13:08.746 : en:00:13:08.746
00:17:28.380 : en:00:17:28.380
00:21:06.682 : en:00:21:06.682
00:27:43.078 : en:00:27:43.078
00:34:57.178 : en:00:34:57.178
00:41:22.271 : en:00:41:22.271
00:46:38.045 : en:00:46:38.045
00:52:41.908 : en:00:52:41.908
00:58:09.444 : en:00:58:09.444
01:03:28.721 : en:01:03:28.721
01:13:36.328 : en:01:13:36.328
01:18:43.260 : en:01:18:43.260
01:23:36.094 : en:01:23:36.094
01:30:28.464 : en:01:30:28.464

Релиз подготовлен 60 - fps

[60-fps.org].t966.torrent
Торрент: Зарегистрирован [ 2015-08-14 23:57 ] · 0D5AE128799E04DC100291DE25668533E025E3B6

Скачать .torrent

Скачать

30 KB

Статус: проверено
Скачан: 96 раз
Поблагодарили:
Размер: 12,07 GB
 
Похожие Темы
 
Показать сообщения:    

Текущее время: 24-Фев 02:24

Часовой пояс: UTC + 3


Вы не можете начинать темы
Вы не можете отвечать на сообщения
Вы не можете редактировать свои сообщения
Вы не можете удалять свои сообщения
Вы не можете голосовать в опросах
Вы не можете прикреплять файлы к сообщениям
Вы можете скачивать файлы