[Цитировать]
Kryl

«In the face on an enemy, in the Heart of One Man, Lies the Soul of a Warrior»- Информация о фильме
Название: Последний самурай
Оригинальное название: The Last Samurai
Год выхода: 2003
Жанр: Боевик, драма, военный, история
Режиссер: Эдвард Цвик
Сценарий: Джон Логан, Эдвард Цвик, Маршалл Херсковиц
Продюсер: Том Круз, Том Энгелман, Маршалл Херсковиц
В ролях: Кен Ватанабе , Том Круз , Коюки , Уильям Этертон , Тони Голдуин , Билли Коннолли , Чэд Линдберг , Тимоти Сполл , Ситиносукэ Накамура , Хироюки Санада , Масато Харада , Син Коямада
--О фильме:
Действие разворачивается в Японии 70-ых годов девятнадцатого века. Капитан Нейтон Альгрен, уважаемый американский военный офицер, нанят Императором Японии для обучения первой армии Страны Восходящего Солнца современному искусству ведения боевых действий.
Император пытается искоренить древних воинов-самураев, готовясь к более прозападной политике правительства…
- - Страна: США, Новая Зеландия, Япония
Продолжительность: 02:34:11
-- Файл
Кодек: MPEG4/ISO/AVC H.264
Формат: MKV
Качество: BDRip 720p
Видео: 1280x530 | at 59,940 fps | ~ 3.5 Мбит/сек
Аудио 1: AC3 | 5.1 | 48 kHz | 640 kbps | 16 bit | Дубляж |
Аудио 2: AC3 | 5.1 | 48 kHz | 640 kbps | 16 bit | ENG |
Субтитры: Русские (forced), русские, английские (forced), английские (SDH)

MedifInfo

Video
ID : 1
Format : AVC
Format/Info : Advanced Video Codec
Format profile : High@L4.1
Format settings, CABAC : Yes
Format settings, ReFrames : 9 frames
Codec ID : V_MPEG4/ISO/AVC
Duration : 2h 34mn
Bit rate : 3 580 Kbps
Width : 1 280 pixels
Height : 530 pixels
Display aspect ratio : 2.40:1
Frame rate : 59.940 fps
Color space : YUV
Chroma subsampling : 4:2:0
Bit depth : 8 bits
Scan type : Progressive
Bits/(Pixel*Frame) : 0.088
Stream size : 3.86 GiB (72%)
Writing library : x264 core 146 r2538 121396c
Encoding settings : cabac=1 / ref=9 / deblock=1:0:0 / analyse=0x3:0x113 / me=umh / subme=10 / psy=1 / psy_rd=1.00:0.00 / mixed_ref=1 / me_range=24 / chroma_me=1 / trellis=2 / 8x8dct=1 / cqm=0 / deadzone=21,11 / fast_pskip=1 / chroma_qp_offset=-2 / threads=6 / lookahead_threads=1 / sliced_threads=0 / nr=0 / decimate=0 / interlaced=0 / bluray_compat=0 / constrained_intra=0 / bframes=6 / b_pyramid=2 / b_adapt=2 / b_bias=0 / direct=1 / weightb=1 / open_gop=0 / weightp=2 / keyint=250 / keyint_min=25 / scenecut=40 / intra_refresh=0 / rc_lookahead=40 / rc=crf / mbtree=0 / crf=17.5 / qcomp=0.60 / qpmin=0 / qpmax=69 / qpstep=4 / vbv_maxrate=50000 / vbv_bufsize=62500 / crf_max=0.0 / nal_hrd=none / filler=0 / ip_ratio=1.40 / pb_ratio=1.30 / aq=1:1.00
Language : English
Default : Yes
Forced : No
Audio #1
ID : 2
Format : AC-3
Format/Info : Audio Coding 3
Mode extension : CM (complete main)
Codec ID : A_AC3
Duration : 2h 34mn
Bit rate mode : Constant
Bit rate : 640 Kbps
Channel(s) : 6 channels
Channel positions : Front: L C R, Side: L R, LFE
Sampling rate : 48.0 KHz
Bit depth : 16 bits
Compression mode : Lossy
Stream size : 706 MiB (13%)
Title : Дублированный
Language : Russian
Default : Yes
Forced : No
Audio #2
ID : 3
Format : AC-3
Format/Info : Audio Coding 3
Mode extension : CM (complete main)
Codec ID : A_AC3
Duration : 2h 34mn
Bit rate mode : Constant
Bit rate : 640 Kbps
Channel(s) : 6 channels
Channel positions : Front: L C R, Side: L R, LFE
Sampling rate : 48.0 KHz
Bit depth : 16 bits
Compression mode : Lossy
Stream size : 706 MiB (13%)
Language : English
Default : No
Forced : No
Text #1
ID : 4
Format : UTF-8
Codec ID : S_TEXT/UTF8
Codec ID/Info : UTF-8 Plain Text
Title : forced
Language : Russian
Default : Yes
Forced : No
Text #2
ID : 5
Format : UTF-8
Codec ID : S_TEXT/UTF8
Codec ID/Info : UTF-8 Plain Text
Language : Russian
Default : No
Forced : No
Text #3
ID : 6
Format : UTF-8
Codec ID : S_TEXT/UTF8
Codec ID/Info : UTF-8 Plain Text
Title : forced
Language : English
Default : No
Forced : No
Text #4
ID : 7
Format : UTF-8
Codec ID : S_TEXT/UTF8
Codec ID/Info : UTF-8 Plain Text
Title : SDH
Language : English
Default : No
Forced : No
Menu
00:00:00.000 : en:00:00:00.000
00:01:52.070 : en:00:01:52.070
00:05:38.630 : en:00:05:38.630
00:09:58.389 : en:00:09:58.389
00:13:13.584 : en:00:13:13.584
00:15:24.882 : en:00:15:24.882
00:20:06.497 : en:00:20:06.497
00:22:54.832 : en:00:22:54.832
00:25:39.496 : en:00:25:39.496
00:31:12.996 : en:00:31:12.996
00:37:00.677 : en:00:37:00.677
00:41:00.917 : en:00:41:00.917
00:44:11.440 : en:00:44:11.440
00:49:36.098 : en:00:49:36.098
00:52:41.116 : en:00:52:41.116
00:56:48.363 : en:00:56:48.363
01:00:04.559 : en:01:00:04.559
01:03:25.260 : en:01:03:25.260
01:06:58.973 : en:01:06:58.973
01:11:43.257 : en:01:11:43.257
01:14:40.601 : en:01:14:40.601
01:18:55.689 : en:01:18:55.689
01:21:22.002 : en:01:21:22.002
01:24:21.014 : en:01:24:21.014
01:26:39.820 : en:01:26:39.820
01:30:28.381 : en:01:30:28.381
01:34:01.761 : en:01:34:01.761
01:37:16.456 : en:01:37:16.456
01:41:46.392 : en:01:41:46.392
01:44:55.915 : en:01:44:55.915
01:48:06.605 : en:01:48:06.605
01:52:26.365 : en:01:52:26.365
01:55:24.376 : en:01:55:24.376
02:00:03.655 : en:02:00:03.655
02:06:24.535 : en:02:06:24.535
02:08:21.485 : en:02:08:21.485
02:10:46.797 : en:02:10:46.797
02:13:06.604 : en:02:13:06.604
02:16:37.314 : en:02:16:37.314
02:22:57.527 : en:02:22:57.527
02:24:31.288 : en:02:24:31.288
 
Показать сообщения:    

Текущее время: 09-Дек 22:20

Часовой пояс: UTC + 3


Вы не можете начинать темы
Вы не можете отвечать на сообщения
Вы не можете редактировать свои сообщения
Вы не можете удалять свои сообщения
Вы не можете голосовать в опросах
Вы не можете прикреплять файлы к сообщениям
Вы не можете скачивать файлы