[Цитировать]
Kryl

«Вечно жить. Вечно убивать»- Информация
Название: Последний охотник на ведьм
Оригинальное название: The Last Witch Hunter
Год выхода: 2015
Жанр: фэнтези, боевик, приключения
Режиссер: Брек Эйснер
Сценарий: Кори Гудман, Мэтт Сазама, Берк Шарплесс
Продюсер: Марк Кантон, Вин Дизель, Берни Голдманн
В ролях: Вин Дизель, Роуз Лесли, Элайджа Вуд, Оулавюр Дарри Оулафссон, Рина Оуэн, Юли Энгельбрехт, Майкл Кейн, Джозеф Гилган, Исаак Де Банколе, Майкл Халсли
--Сюжет:

Современный мир скрывает множество секретов, но самым удивительным из них является то, что ведьмы до сих пор живут среди нас. Это злобные сверхъестественные существа, чья цель — наслать на мир смертоносную чуму. Армии охотников на ведьм сражались с ними на протяжении многих веков.
В наши дни остался всего лишь один охотник на ведьм, Колдер, которому однажды удалось убить всемогущую королеву ведьм. Но Колдер еще не знает, что королева воскресла и жаждет отомстить своему убийце…
- Страна: США, Китай, Канада
Продолжительность: 01:46:26

Файл
Кодек: MPEG4/ISO/AVC H.264
Формат: MKV
Качество: WEBRip 720p | 60 fps
Видео: 1280 x 720 (1.778) | 60.000 fps | 6.0 Мбит/сек
Аудио: AC3 | 5.1 | 48 kHz | 384 kbps | 16 bit | Профессиональный (дублированный) iTunes |

MedifInfo

Видео
Идентификатор : 1
Формат : AVC
Формат/Информация : Advanced Video Codec
Профиль формата : High@L4.1
Параметр CABAC формата : Да
Параметр ReFrames формата : 3 кадра
Идентификатор кодека : V_MPEG4/ISO/AVC
Продолжительность : 1 ч. 46 м.
Вид битрейта : Переменный
Битрейт : 5723 Кбит/сек
Максимальный битрейт : 6000 Кбит/сек
Ширина : 1280 пикселей
Высота : 720 пикселей
Соотношение сторон : 16:9
Режим частоты кадров : Постоянный
Частота кадров : 60,000 кадров/сек
Стандарт вещания : PAL
Цветовое пространство : YUV
Субдискретизация насыщенности : 4:2:0
Битовая глубина : 8 бит
Тип развёртки : Прогрессивная
Бит/(Пиксели*Кадры) : 0.103
Размер потока : 4,26 Гбайт (92%)
Заголовок : www.60-fps.org
Язык : English
Default : Да
Forced : Нет
Основные цвета : BT.709
Характеристики трансфера : BT.709
Коэффициенты матрицы : BT.709
colour_range : Limited
Аудио
Идентификатор : 2
Формат : AC-3
Формат/Информация : Audio Coding 3
Расширение режима : CM (complete main)
Параметр Endianness формата : Big
Идентификатор кодека : A_AC3
Продолжительность : 1 ч. 46 м.
Вид битрейта : Постоянный
Битрейт : 384 Кбит/сек
Каналы : 6 каналов
Расположение каналов : Front: L C R, Side: L R, LFE
Частота : 48,0 КГц
Битовая глубина : 16 бит
Метод сжатия : С потерями
Размер потока : 292 Мбайт (6%)
Язык : Russian
Default : Да
Forced : Нет
Меню
00:00:00.000 : en:Глава 1
00:05:21.000 : en:Глава 2
00:12:06.000 : en:Глава 3
00:18:03.000 : en:Глава 4
00:25:15.000 : en:Глава 5
00:30:58.000 : en:Глава 6
00:36:21.000 : en:Глава 7
00:42:57.000 : en:Глава 8
00:49:17.000 : en:Глава 9
00:54:59.000 : en:Глава 10
01:00:28.000 : en:Глава 11
01:05:48.000 : en:Глава 12
01:12:07.000 : en:Глава 13
01:17:47.000 : en:Глава 14
01:23:42.000 : en:Глава 15
01:29:42.000 : en:Глава 16
01:35:48.000 : en:Глава 17

Релиз подготовлен 60 - fps

[60-fps.org].t1720.torrent
Торрент: Зарегистрирован [ 2016-01-13 17:14 ] · E4C9A90A4FCA0ED7E96F3D02329295DBDAA9AC17

Скачать .torrent

Скачать

12 KB

Статус: проверено
Скачан: 336 раз
Поблагодарили:
Размер: 4,63 GB
 
Похожие Темы


Последний раз редактировалось: Kryl (2016-01-14 01:29), всего редактировалось 1 раз

[Цитировать]
Annanerbo

Быстро, спасибо большое Улыбаюсь

[Цитировать]
dzubakr

кто-нибудь сделает этот фильм в 720р со звуком 640 kbps? есть смысл ждать?

[Цитировать]
Тимур Артыков

Качество: BDRip 1080p | 60 fps? Рили?

[Цитировать]
Kryl

4927кто-нибудь сделает этот фильм в 720р со звуком 640 kbps? есть смысл ждать?
Ждите , когда исходник будет , сделаю .
4928Качество: BDRip 1080p | 60 fps? Рили?
Моя ошибка .. конечно же WEBRip 720p

[Цитировать]
WowiK571

звука нету Злой

[Цитировать]
Kryl

5103звука нету Злой
Смеюсь Смеюсь Смеюсь Смеюсь Смеюсь Смеюсь
обновите кодеки .
 
Показать сообщения:    

Текущее время: 20-Фев 02:28

Часовой пояс: UTC + 3


Вы не можете начинать темы
Вы не можете отвечать на сообщения
Вы не можете редактировать свои сообщения
Вы не можете удалять свои сообщения
Вы не можете голосовать в опросах
Вы не можете прикреплять файлы к сообщениям
Вы можете скачивать файлы