VIP

1917 / 1917 (2019) BDRip 1080p | 60 fps Звёздные войны: Скайуокер. Восход / Star Wars: Episode IX - The Rise of Skywalker (2019) BDRip 1080p | 60 fps Плохие парни навсегда / Bad Boys for Life (2019) BDRip 1080p | 60 fps Интерстеллар / Interstellar (2014) BDRip 1080p | IMAX Edition | 60fps Хищные птицы: Потрясающая история Харли Квинн / Birds of Prey: And the Fantabulous Emancipation of One Harley Quinn (2020) BDRip 1080p | 60 fps Доктор Стрэндж / Doctor Strange (2016) BDRip 1080p | 60 fps Джентльмены / The Gentlemen (2019) BDRip 1080p | 60 fps Остров фантазий / Fantasy Island (2020) BDRip 1080p | 60 fps
  1. Longevity:
    5 years 11 months
    Posts:
    311
    Gender:
    Male
    Последний охотник на ведьм / The Last Witch Hunter (2015) BDRip 720p | 60fps«Вечно жить. Вечно убивать»- Информация о фильме
    Название: Последний охотник на ведьм
    Оригинальное название: The Last Witch Hunter
    Год выхода: 2015
    Жанр: Фэнтези, боевик, приключения
    Режиссер: Брек Эйснер
    Продюсер: Марк Кантон, Вин Дизель, Берни Голдманн
    В ролях: Вин Дизель, Роуз Лесли, Элайджа Вуд, Оулавюр Дарри Оулафссон, Рина Оуэн, Юли Энгельбрехт, Майкл Кейн, Джозеф Гилган, Исаак Де Банколе, Майкл Халсли
    Описание фильма:
    Современный мир скрывает множество секретов, но самым удивительным из них является то, что ведьмы до сих пор живут среди нас. Это злобные сверхъестественные существа, чья цель — наслать на мир смертоносную чуму. Армии охотников на ведьм сражались с ними на протяжении многих веков.
    В наши дни остался всего лишь один охотник на ведьм, Колдер, которому однажды удалось убить всемогущую королеву ведьм. Но Колдер еще не знает, что королева воскресла и жаждет отомстить своему убийце…
    Страна: США, Китай, Канада
    Студия: Summit Entertainment, Goldmann Pictures, NeoReel
    Продолжительность: 01:46:34
    Перевод: Дублированный (iTunes)
    Субтитры:Отсутствуют

    Дата мировой премьеры:13 октября 2015
    Дата российской премьеры:29 октября 2015, «Централ Партнершип»
    Файл
    Формат: MKV
    Кодек: MPEG-4 AVC/H.264
    Качество: BDRip 720p
    Видео: ~ 12.0 Мбит/сек, 1280 x 544, 59.940 кадров/сек
    Аудио: AC3 5.1, 48.0 KHz, 640 Кбит/сек - Русский (Hdclub)

    MediaInfo

    Общее
    Уникальный идентификатор : 192049767756214635103490457918027280374 (0x907B709A3C04533FA8228D39C3672FF6)
    Полное имя : E:\Торренты\The Last Witch Hunter 60fps.mkv
    Формат : Matroska
    Версия формата : Version 2
    Размер файла : 9,63 Гбайт
    Продолжительность : 1 ч. 46 м.
    Общий поток : 12,9 Мбит/сек
    Дата кодирования : UTC 2016-01-23 16:27:25
    Программа кодирования : mkvmerge v6.1.0 ('Old Devil') built on Mar 4 2013 09:10:42
    Библиотека кодирования : libebml v1.3.0 + libmatroska v1.4.0
    Видео
    Идентификатор : 1
    Формат : AVC
    Формат/Информация : Advanced Video Codec
    Профиль формата : High@L4.1
    Параметр CABAC формата : Да
    Параметр ReFrames формата : 6 кадров
    Идентификатор кодека : V_MPEG4/ISO/AVC
    Продолжительность : 1 ч. 46 м.
    Битрейт : 12,0 Мбит/сек
    Ширина : 1280 пикселей
    Высота : 544 пикселя
    Соотношение сторон : 2,35:1
    Режим частоты кадров : Постоянный
    Частота кадров : 59,880 кадров/сек
    Частота кадров в оригинале : 59,940 кадров/сек
    Цветовое пространство : YUV
    Субдискретизация насыщенности : 4:2:0
    Битовая глубина : 8 бит
    Тип развёртки : Прогрессивная
    Бит/(Пиксели*Кадры) : 0.289
    Размер потока : 8,97 Гбайт (93%)
    Библиотека кодирования : x264 core 130 r2273 b3065e6
    Настройки программы : cabac=1 / ref=6 / deblock=1:0:0 / analyse=0x3:0x133 / me=umh / subme=8 / psy=1 / psy_rd=1.00:0.15 / mixed_ref=1 / me_range=20 / chroma_me=1 / trellis=2 / 8x8dct=1 / cqm=0 / deadzone=21,11 / fast_pskip=0 / chroma_qp_offset=-3 / threads=6 / lookahead_threads=2 / sliced_threads=0 / nr=0 / decimate=0 / interlaced=0 / bluray_compat=0 / constrained_intra=0 / bframes=8 / b_pyramid=2 / b_adapt=2 / b_bias=0 / direct=1 / weightb=1 / open_gop=0 / weightp=2 / keyint=250 / keyint_min=25 / scenecut=40 / intra_refresh=0 / rc=crf / mbtree=0 / crf=16.0 / qcomp=0.63 / qpmin=10 / qpmax=51 / qpstep=4 / ip_ratio=1.40 / pb_ratio=1.30 / aq=1:1.20
    Default : Да
    Forced : Нет
    Аудио
    Идентификатор : 2
    Формат : AC-3
    Формат/Информация : Audio Coding 3
    Расширение режима : CM (complete main)
    Параметр Endianness формата : Big
    Идентификатор кодека : A_AC3
    Продолжительность : 1 ч. 46 м.
    Вид битрейта : Постоянный
    Битрейт : 640 Кбит/сек
    Каналы : 6 каналов
    Расположение каналов : Front: L C R, Side: L R, LFE
    Частота : 48,0 КГц
    Битовая глубина : 16 бит
    Метод сжатия : С потерями
    Размер потока : 488 Мбайт (5%)
    Default : Да
    Forced : Нет
    Скриншоты:

    Release was prepared by 60 - fps

  2. Longevity:
    4 years 11 months
    Posts:
    40
    Gender:
    Male
    дождался!!!!11 Танец
    спасибо, дружище!
    24-Jan-2016 16:16 (after 5 hours)
  3. Longevity:
    5 years 1 month
    Posts:
    149
    Gender:
    Male
    Благодарю Овации
    25-Jan-2016 10:37 (after 18 hours)
  4. Longevity:
    4 years 10 months
    Posts:
    26
    Gender:
    Male
    Рукопожатие
    06-Feb-2016 16:03 (after 12 days)
  5. Longevity:
    5 years 6 months
    Posts:
    2
    Gender:
    Unknown
    Спасибо!
    21-Mar-2016 17:54 (after 1 month 15 days)
  6. Longevity:
    4 years 5 months
    Posts:
    9
    Gender:
    Unknown
    интересная задумка, а вот сюжет не поразил) думаю продолжение сле
    24-Mar-2016 19:44 (after 3 days)


You cannot post new topics in this forum
You cannot reply to topics in this forum
You cannot edit your posts in this forum
You cannot delete your posts in this forum
You cannot vote in polls in this forum
You cannot attach files in this forum
You cannot download files in this forum