1. Longevity:
    4 years 10 months
    Posts:
    336
    Gender:
    Male
    Заказать фильмы, клипы или любое другое видео в качестве 60fps может каждый!!!
    Стоимость одного видео 50руб. !!!
    Пишите Талямба в личку, всё обсудите...
    [kp]https://www.kinopoisk.ru/film/1396701/[/kp] [imdb]https://www.imdb.com/title/tt12808182/[/imdb] Последний наемник / Le dernier mercenaire / The Last Mercenary (2021) WEB-DL 1080p | 60 fps Информация
    Название: Последний наемник
    Оригинальное название: Le dernier mercenaire / The Last Mercenary
    Год выхода: 2021
    Жанр: Боевик, комедия
    Режиссер: Давид Шарон
    В ролях: Жан-Клод Ван Дамм, Альбан Иванов, Самир Декацца, Асса Силла, Джимо, Миу-Миу, Эрик Жюдор, Патрик Тимсит, Филипп Морье-Жено, Насим Си-Амед, Валери Каприски, Алексей Горбунов, Захар Шадрин, Майк Гасавей, Мишель Кремадес, Уидад Эльма, Фатса Буяхмед, Фабьен Ара, Билаль Эль Атреби, Исмаэль Си Саван, Дэвид Шарон
    Страна: Франция
    Продолжительность: 1 ч. 52 м. 27 с.
    --- Сюжет:
    Загадочный тайный агент, осужденный правительством, вынужден вернуться во Францию, чтобы спасти свого сына, которого подставила международная террористическая организация. --- Файл
    Кодек: V_MPEG4/ISO/AVC
    Формат: MKV
    Качество: WEB-DL 1080p | 60 fps
    Видео: 1920 x 960 (2,000) | 59.940 fps | 20 Мбит/сек
    Аудио 1: AC3, 48 kHz, 6 ch, 384 kbps | RUS| Netflix |
    Аудио 2: E-AC3, 48 kHz, 6 ch, 640 kbps | RUS| Netflix |
    Аудио 3: E-AC3, 48 kHz, 6 ch, 640 kbps | UKR | Netflix |
    Аудио 4: E-AC3, 48 kHz, 6 ch, 640 kbps | Оригинал | FRE |

    MedifInfo

    Общее
    Уникальный идентификатор : 230454686566095758815485213660120485455 (0xAD5FF54A82E31673AB3179BF0FC20E4F)
    Полное имя : D:\Movie\Последний наемник.2021.1080p.WEB-DL.60fps.mkv
    Формат : Matroska
    Версия формата : Version 2
    Размер файла : 17,5 Гбайт
    Продолжительность : 1 ч. 52 м.
    Общий поток : 22,3 Мбит/сек
    Название фильма : Последний наемник (2021) https://60-fps.org/
    Дата кодирования : UTC 2021-08-01 06:09:00
    Программа кодирования : mkvmerge v5.8.0 ('No Sleep / Pillow') built on Sep 2 2012 15:37:04
    Библиотека кодирования : libebml v1.2.3 + libmatroska v1.3.0
    Attachments : Poster.jpg
    Видео
    Идентификатор : 1
    Формат : AVC
    Формат/Информация : Advanced Video Codec
    Профиль формата : High@L4.1
    Параметр CABAC формата : Да
    Параметр ReFrames формата : 4 кадра
    Режим смешивания : Header stripping
    Идентификатор кодека : V_MPEG4/ISO/AVC
    Продолжительность : 1 ч. 52 м.
    Битрейт : 20,0 Мбит/сек
    Ширина : 1920 пикселей
    Высота : 960 пикселей
    Соотношение сторон : 2,000
    Режим частоты кадров : Постоянный
    Частота кадров : 60,000 кадров/сек
    Цветовое пространство : YUV
    Субдискретизация насыщенности : 4:2:0
    Битовая глубина : 8 бит
    Тип развёртки : Прогрессивная
    Бит/(Пиксели*Кадры) : 0.181
    Размер потока : 15,4 Гбайт (88%)
    Библиотека кодирования : x264 core 146 r2538 121396c
    Настройки программы : cabac=1 / ref=4 / deblock=1:0:0 / analyse=0x3:0x113 / me=umh / subme=8 / psy=1 / psy_rd=1.00:0.25 / mixed_ref=1 / me_range=32 / chroma_me=1 / trellis=1 / 8x8dct=1 / cqm=0 / deadzone=6,6 / fast_pskip=1 / chroma_qp_offset=-4 / threads=12 / lookahead_threads=3 / sliced_threads=0 / nr=0 / decimate=0 / interlaced=0 / bluray_compat=0 / constrained_intra=0 / bframes=3 / b_pyramid=2 / b_adapt=2 / b_bias=0 / direct=3 / weightb=1 / open_gop=0 / weightp=2 / keyint=600 / keyint_min=60 / scenecut=40 / intra_refresh=0 / rc_lookahead=50 / rc=2pass / mbtree=1 / bitrate=20000 / ratetol=1.0 / qcomp=0.80 / qpmin=0 / qpmax=69 / qpstep=4 / cplxblur=20.0 / qblur=0.5 / vbv_maxrate=50000 / vbv_bufsize=50000 / nal_hrd=none / filler=0 / ip_ratio=1.10 / aq=1:0.50
    Язык : English
    Default : Да
    Forced : Нет
    Аудио #1
    Идентификатор : 2
    Формат : AC-3
    Формат/Информация : Audio Coding 3
    Расширение режима : CM (complete main)
    Параметр Endianness формата : Big
    Режим смешивания : Header stripping
    Идентификатор кодека : A_AC3
    Продолжительность : 1 ч. 52 м.
    Вид битрейта : Постоянный
    Битрейт : 384 Кбит/сек
    Каналы : 6 каналов
    Расположение каналов : Front: L C R, Side: L R, LFE
    Частота : 48,0 КГц
    Частота кадров : 31,250 кадров/сек (1536 spf)
    Битовая глубина : 16 бит
    Метод сжатия : С потерями
    Размер потока : 309 Мбайт (2%)
    Заголовок : AC3
    Язык : Russian
    Default : Да
    Forced : Нет
    Statistics Tags Issue : mkvmerge v57.0.0 ('Till The End') 64-bit 2021-07-30 07:05:36 / mkvmerge v5.8.0 ('No Sleep / Pillow') built on Sep 2 2012 15:37:04 2021-08-01 06:09:00
    FromStats_BitRate : 384000
    FromStats_Duration : 01:52:26.912000000
    FromStats_FrameCount : 210841
    FromStats_StreamSize : 323851776
    Аудио #2
    Идентификатор : 3
    Формат : E-AC-3
    Формат/Информация : Enhanced Audio Coding 3
    Параметр Endianness формата : Big
    Режим смешивания : Header stripping
    Идентификатор кодека : A_EAC3
    Продолжительность : 1 ч. 52 м.
    Вид битрейта : Постоянный
    Битрейт : 640 Кбит/сек
    Каналы : 6 каналов
    Расположение каналов : Front: L C R, Side: L R, LFE
    Частота : 48,0 КГц
    Частота кадров : 187,500 кадров/сек (256 spf)
    Метод сжатия : С потерями
    Размер потока : 515 Мбайт (3%)
    Заголовок : E-AC3
    Язык : Russian
    Default : Нет
    Forced : Нет
    Statistics Tags Issue : mkvmerge v57.0.0 ('Till The End') 64-bit 2021-07-30 07:05:36 / mkvmerge v5.8.0 ('No Sleep / Pillow') built on Sep 2 2012 15:37:04 2021-08-01 06:09:00
    FromStats_BitRate : 640000
    FromStats_Duration : 01:52:26.912000000
    FromStats_FrameCount : 210841
    FromStats_StreamSize : 539752960
    Аудио #3
    Идентификатор : 4
    Формат : E-AC-3
    Формат/Информация : Enhanced Audio Coding 3
    Параметр Endianness формата : Big
    Режим смешивания : Header stripping
    Идентификатор кодека : A_EAC3
    Продолжительность : 1 ч. 52 м.
    Вид битрейта : Постоянный
    Битрейт : 640 Кбит/сек
    Каналы : 6 каналов
    Расположение каналов : Front: L C R, Side: L R, LFE
    Частота : 48,0 КГц
    Частота кадров : 187,500 кадров/сек (256 spf)
    Метод сжатия : С потерями
    Размер потока : 515 Мбайт (3%)
    Язык : Ukrainian
    Default : Нет
    Forced : Нет
    Statistics Tags Issue : mkvmerge v57.0.0 ('Till The End') 64-bit 2021-07-30 07:05:36 / mkvmerge v5.8.0 ('No Sleep / Pillow') built on Sep 2 2012 15:37:04 2021-08-01 06:09:00
    FromStats_BitRate : 640000
    FromStats_Duration : 01:52:26.912000000
    FromStats_FrameCount : 210841
    FromStats_StreamSize : 539752960
    Аудио #4
    Идентификатор : 5
    Формат : E-AC-3
    Формат/Информация : Enhanced Audio Coding 3
    Параметр Endianness формата : Big
    Режим смешивания : Header stripping
    Идентификатор кодека : A_EAC3
    Продолжительность : 1 ч. 52 м.
    Вид битрейта : Постоянный
    Битрейт : 640 Кбит/сек
    Каналы : 6 каналов
    Расположение каналов : Front: L C R, Side: L R, LFE
    Частота : 48,0 КГц
    Частота кадров : 187,500 кадров/сек (256 spf)
    Метод сжатия : С потерями
    Размер потока : 515 Мбайт (3%)
    Язык : French
    Default : Нет
    Forced : Нет
    Statistics Tags Issue : mkvmerge v57.0.0 ('Till The End') 64-bit 2021-07-30 07:05:36 / mkvmerge v5.8.0 ('No Sleep / Pillow') built on Sep 2 2012 15:37:04 2021-08-01 06:09:00
    FromStats_BitRate : 640000
    FromStats_Duration : 01:52:26.912000000
    FromStats_FrameCount : 210841
    FromStats_StreamSize : 539752960
    Текст #1
    Идентификатор : 6
    Формат : UTF-8
    Идентификатор кодека : S_TEXT/UTF8
    Идентификатор кодека/Информация : UTF-8 Plain Text
    Заголовок : Forced
    Язык : Russian
    Default : Да
    Forced : Нет
    Statistics Tags Issue : mkvmerge v57.0.0 ('Till The End') 64-bit 2021-07-30 07:05:36 / mkvmerge v5.8.0 ('No Sleep / Pillow') built on Sep 2 2012 15:37:04 2021-08-01 06:09:00
    FromStats_BitRate : 3
    FromStats_Duration : 01:50:22.583000000
    FromStats_FrameCount : 65
    FromStats_StreamSize : 3253
    Текст #2
    Идентификатор : 7
    Формат : UTF-8
    Идентификатор кодека : S_TEXT/UTF8
    Идентификатор кодека/Информация : UTF-8 Plain Text
    Язык : Russian
    Default : Нет
    Forced : Нет
    Statistics Tags Issue : mkvmerge v57.0.0 ('Till The End') 64-bit 2021-07-30 07:05:36 / mkvmerge v5.8.0 ('No Sleep / Pillow') built on Sep 2 2012 15:37:04 2021-08-01 06:09:00
    FromStats_BitRate : 96
    FromStats_Duration : 01:50:22.583000000
    FromStats_FrameCount : 1679
    FromStats_StreamSize : 80198
    Текст #3
    Идентификатор : 8
    Формат : UTF-8
    Идентификатор кодека : S_TEXT/UTF8
    Идентификатор кодека/Информация : UTF-8 Plain Text
    Заголовок : Forced
    Язык : French
    Default : Нет
    Forced : Нет
    Statistics Tags Issue : mkvmerge v57.0.0 ('Till The End') 64-bit 2021-07-30 07:05:36 / mkvmerge v5.8.0 ('No Sleep / Pillow') built on Sep 2 2012 15:37:04 2021-08-01 06:09:00
    FromStats_BitRate : 3
    FromStats_Duration : 01:50:22.750000000
    FromStats_FrameCount : 77
    FromStats_StreamSize : 2585
    Текст #4
    Идентификатор : 9
    Формат : UTF-8
    Идентификатор кодека : S_TEXT/UTF8
    Идентификатор кодека/Информация : UTF-8 Plain Text
    Заголовок : SDH
    Язык : French
    Default : Нет
    Forced : Нет
    Statistics Tags Issue : mkvmerge v57.0.0 ('Till The End') 64-bit 2021-07-30 07:05:36 / mkvmerge v5.8.0 ('No Sleep / Pillow') built on Sep 2 2012 15:37:04 2021-08-01 06:09:00
    FromStats_BitRate : 82
    FromStats_Duration : 01:50:22.750000000
    FromStats_FrameCount : 2195
    FromStats_StreamSize : 68463
    Текст #5
    Идентификатор : 10
    Формат : UTF-8
    Идентификатор кодека : S_TEXT/UTF8
    Идентификатор кодека/Информация : UTF-8 Plain Text
    Язык : English
    Default : Нет
    Forced : Нет
    Statistics Tags Issue : mkvmerge v57.0.0 ('Till The End') 64-bit 2021-07-30 07:05:36 / mkvmerge v5.8.0 ('No Sleep / Pillow') built on Sep 2 2012 15:37:04 2021-08-01 06:09:00
    FromStats_BitRate : 60
    FromStats_Duration : 01:49:00.792000000
    FromStats_FrameCount : 1569
    FromStats_StreamSize : 49187
    Текст #6
    Идентификатор : 11
    Формат : UTF-8
    Идентификатор кодека : S_TEXT/UTF8
    Идентификатор кодека/Информация : UTF-8 Plain Text
    Язык : Romanian
    Default : Нет
    Forced : Нет
    Statistics Tags Issue : mkvmerge v57.0.0 ('Till The End') 64-bit 2021-07-30 07:05:36 / mkvmerge v5.8.0 ('No Sleep / Pillow') built on Sep 2 2012 15:37:04 2021-08-01 06:09:00
    FromStats_BitRate : 57
    FromStats_Duration : 01:50:22.583000000
    FromStats_FrameCount : 1675
    FromStats_StreamSize : 47602
    Текст #7
    Идентификатор : 12
    Формат : UTF-8
    Идентификатор кодека : S_TEXT/UTF8
    Идентификатор кодека/Информация : UTF-8 Plain Text
    Заголовок : Forced
    Язык : Ukrainian
    Default : Нет
    Forced : Нет
    Statistics Tags Issue : mkvmerge v57.0.0 ('Till The End') 64-bit 2021-07-30 07:05:36 / mkvmerge v5.8.0 ('No Sleep / Pillow') built on Sep 2 2012 15:37:04 2021-08-01 06:09:00
    FromStats_BitRate : 3
    FromStats_Duration : 01:50:28.125000000
    FromStats_FrameCount : 67
    FromStats_StreamSize : 2812
    Текст #8
    Идентификатор : 13
    Формат : UTF-8
    Идентификатор кодека : S_TEXT/UTF8
    Идентификатор кодека/Информация : UTF-8 Plain Text
    Язык : Ukrainian
    Default : Нет
    Forced : Нет
    Statistics Tags Issue : mkvmerge v57.0.0 ('Till The End') 64-bit 2021-07-30 07:05:36 / mkvmerge v5.8.0 ('No Sleep / Pillow') built on Sep 2 2012 15:37:04 2021-08-01 06:09:00
    FromStats_BitRate : 88
    FromStats_Duration : 01:50:28.125000000
    FromStats_FrameCount : 1677
    FromStats_StreamSize : 73481

    Release was prepared by 60-fps.org



You cannot post new topics in this forum
You cannot reply to topics in this forum
You cannot edit your posts in this forum
You cannot delete your posts in this forum
You cannot vote in polls in this forum
You cannot attach files in this forum
You cannot download files in this forum