[Цитировать]
BOT2

-Название: Посейдон
Оригинальное название: Poseidon
Год выпуска: 2006
Страна: США
Жанр: боевик, триллер, драма, приключения
Продолжительность: 01:38:14
Перевод: Дубляж
Субтитры: русские (Полные), английские (Полные)-Режиссер: Вольфганг Петерсен / Wolfgang Petersen-В ролях: Джош Лукас (Dylan Johns), Курт Рассел (Robert Ramsey), Джасинда Бэррет (Maggie James), Ричард Дрейфусс (Richard Nelson), Эмми Россам (Jennifer Ramsey), Миа Маэстро (Elena Morales), Майк Фогель (Christian), Кевин Диллон (Lucky Larry), Фредди Родригес (Marco Valentin), Джимми Беннетт (Conor James), Ферги Дюамель (Gloria), Андре Брогер (Captain Bradford)-Описание:
Накануне новогоднего праздника в Атлантическом океане терпит бедствие шикарный круизный лайнер «Посейдон», который перевернула гигантская приливная волна. В то время, как сотни выживших пассажиров, выполняя указания капитана, остаются в главном танцзале и ждут помощи с берега, профессиональный картежник Дилан Джонс ищет свой путь к спасению.
Компанию Дилану вопреки его желанию составляют девятилетний Конор со своей матерью Мэгги, Роберт Рэмси, пытающийся отыскать свою дочь по имени Дженнифер, а также ее жених Кристиан. К ним присоединяются застенчивая безбилетница, пожилой гей, намеревавшийся покончить с собой, и молодой официант. Все они прилагают невероятные усилия, чтобы выбраться из тонущего корабля на поверхность...-Рейтинг
-Качество: BDRip-AVC 60fps
Формат: MKV
Видео кодек: AVC
Аудио кодек:AC3
Видео: AVC, 1024x424 (2.40:1), 4000 kbps, 59,940 fps, 0,154 bpp
Аудио: русский / AC3 / 5.1 / 48 kHz / 448 kbps / 16 bit |Дубляж|
Навигация по главам: есть- Релиз by: -

MI

General
Unique ID : 209900573393326332545031077116962548792 (0x9DE9614555E36B24AA07FE31A6962C38)
Complete name : A:\Фильмы\BDRip-avc\Посейдон 2006 BDRip-AVC 60fps R.G. HD-films.mkv
Format : Matroska
Format version : Version 4 / Version 2
File size : 3.05 GiB
Duration : 1h 38mn
Overall bit rate : 4 451 Kbps
Movie name : Tiberiumsun69
Encoded date : UTC 2015-06-25 13:10:04
Writing application : mkvmerge v7.9.0 ('Birds') 64bit
Writing library : libebml v1.3.1 + libmatroska v1.4.2
Attachment : Yes
Video
ID : 1
Format : AVC
Format/Info : Advanced Video Codec
Format profile : High@L4.1
Format settings, CABAC : Yes
Format settings, ReFrames : 4 frames
Codec ID : V_MPEG4/ISO/AVC
Duration : 1h 38mn
Bit rate : 4 000 Kbps
Width : 1 024 pixels
Height : 424 pixels
Display aspect ratio : 2.40:1
Frame rate : 59.940 fps
Color space : YUV
Chroma subsampling : 4:2:0
Bit depth : 8 bits
Scan type : Progressive
Bits/(Pixel*Frame) : 0.154
Stream size : 2.69 GiB (88%)
Title : Tiberiumsun69
Writing library : x264 core 146 r2538 121396c
Encoding settings : cabac=1 / ref=4 / deblock=1:0:0 / analyse=0x3:0x113 / me=umh / subme=9 / psy=1 / psy_rd=1.00:0.10 / mixed_ref=1 / me_range=32 / chroma_me=1 / trellis=2 / 8x8dct=1 / cqm=0 / deadzone=21,11 / fast_pskip=0 / chroma_qp_offset=-3 / threads=12 / lookahead_threads=3 / sliced_threads=0 / nr=0 / decimate=1 / interlaced=0 / bluray_compat=0 / constrained_intra=0 / bframes=16 / b_pyramid=2 / b_adapt=2 / b_bias=0 / direct=3 / weightb=1 / open_gop=0 / weightp=2 / keyint=600 / keyint_min=59 / scenecut=40 / intra_refresh=0 / rc_lookahead=60 / rc=2pass / mbtree=1 / bitrate=4000 / ratetol=1.0 / qcomp=0.60 / qpmin=0 / qpmax=69 / qpstep=4 / cplxblur=20.0 / qblur=0.5 / vbv_maxrate=50000 / vbv_bufsize=62500 / nal_hrd=none / filler=0 / ip_ratio=1.40 / aq=1:1.00
Language : English
Default : Yes
Forced : No
Audio
ID : 2
Format : AC-3
Format/Info : Audio Coding 3
Mode extension : CM (complete main)
Codec ID : A_AC3
Duration : 1h 38mn
Bit rate mode : Constant
Bit rate : 448 Kbps
Channel(s) : 6 channels
Channel positions : Front: L C R, Side: L R, LFE
Sampling rate : 48.0 KHz
Bit depth : 16 bits
Compression mode : Lossy
Stream size : 315 MiB (10%)
Title : Дубляж
Language : Russian
Default : Yes
Forced : No
Text #1
ID : 3
Format : UTF-8
Codec ID : S_TEXT/UTF8
Codec ID/Info : UTF-8 Plain Text
Title : Полные
Language : Russian
Default : No
Forced : No
Text #2
ID : 4
Format : UTF-8
Codec ID : S_TEXT/UTF8
Codec ID/Info : UTF-8 Plain Text
Title : Полные
Language : English
Default : No
Forced : No
Menu
00:00:00.000 : :Chapter 1
00:03:35.340 : :Chapter 2
00:07:20.857 : :Chapter 3
00:12:16.777 : :Chapter 4
00:15:22.463 : :Chapter 5
00:19:56.570 : :Chapter 6
00:24:27.466 : :Chapter 7
00:28:09.771 : :Chapter 8
00:34:07.420 : :Chapter 9
00:38:14.000 : :Chapter 10
00:43:04.748 : :Chapter 11
00:46:24.490 : :Chapter 12
00:48:18.812 : :Chapter 13
00:55:12.309 : :Chapter 14
00:59:44.831 : :Chapter 15
01:04:44.046 : :Chapter 16
01:08:43.869 : :Chapter 17
01:12:24.673 : :Chapter 18
01:15:43.247 : :Chapter 19
01:20:08.220 : :Chapter 20
01:23:56.906 : :Chapter 21
01:29:09.343 : :Chapter 22
01:38:14.555 : :Chapter 23

Скриншоты

[Цитировать]
bobank

Ни одного сида.

[Цитировать]
Kryl

3572Ни одного сида.
[adm]Попробовал сиды есть !!! И загрузка идет .[/adm]

[Цитировать]
bobank

Увы, но нет. uTorrent показывает сидов: 0, пиров: 0

[Цитировать]
Kryl

3574Увы, но нет. uTorrent показывает сидов: 0, пиров: 0
Смотрим скриншот :
перекачайте торрент файл
 
Показать сообщения:    

Текущее время: 24-Май 07:18

Часовой пояс: UTC + 3


Вы не можете начинать темы
Вы не можете отвечать на сообщения
Вы не можете редактировать свои сообщения
Вы не можете удалять свои сообщения
Вы не можете голосовать в опросах
Вы не можете прикреплять файлы к сообщениям
Вы не можете скачивать файлы