[Цитировать]
Kryl

Фильм «Dark truths will come to light» Фильм- Информация
Название: Помнить
Оригинальное название: Remember
Год выхода: 2015
Жанр: Триллер, драма
Режиссер: Атом Эгоян
Сценарий: Бенжамин Огуст
Продюсер: Эри Лантос, Роберт Лантош, Аарон Барнетт
В ролях: Кристофер Пламмер, Дин Норрис, Мартин Ландау, Юрген Прохнов, Натали Крилл, Бруно Ганц, Генри Черни, Джеймс Кейд, Питер ДаКуна, София Уэллс
--Сюжет:
Многие годы Зев Гутман старается забыть все то, что произошло с ним в Освенциме. Прошло уже семьдесят лет: Зев обзавелся семьей, построил уютную и спокойную жизнь, и сейчас он находится на заслуженном отдыхе в доме престарелых. Но он так и не смог преодолеть ужас, пережитый в лагере смерти. Макс, его старый друг, вышел на след человека, мучившего их обоих в Освенциме.
Преступник смог избежать правосудия, а теперь спокойно живет в Америке под именем Руди Курландера. Старые друзья решают отыскать его и самолично восстановить справедливость. Но Макс прикован к инвалидной коляске, поэтому завершить начатое должен Зев. Не сообщив ничего семье, Зев решается в одиночку совершить возмездие…
- - Страна: Канада, Германия
Продолжительность: 01:34:22

Файл
Кодек: MPEG4/ISO/AVC H.264
Формат: MKV
Качество: BDRip 720p | 60 fps
Видео: 1280 x 720 (1.778) | 59.940 fps | 10.0 Мбит/сек
Аудио 1: AC3 | 5.1 | 48 kHz | 384 kbps | 16 bit | Дубляж iTunes |
Аудио 2: AC3 | 5.1 | 48 kHz | 640 kbps | 16 bit | ENG |
Субтитры: English

MedifInfo

Видео
Идентификатор : 1
Формат : AVC
Формат/Информация : Advanced Video Codec
Профиль формата : High@L4.1
Параметр CABAC формата : Да
Параметр ReFrames формата : 3 кадра
Идентификатор кодека : V_MPEG4/ISO/AVC
Продолжительность : 1 ч. 34 м.
Вид битрейта : Переменный
Битрейт : 9607 Кбит/сек
Максимальный битрейт : 10000 Кбит/сек
Ширина : 1280 пикселей
Высота : 720 пикселей
Соотношение сторон : 16:9
Режим частоты кадров : Постоянный
Частота кадров : 59,880 кадров/сек
Частота кадров в оригинале : 59,940 кадров/сек
Стандарт вещания : PAL
Цветовое пространство : YUV
Субдискретизация насыщенности : 4:2:0
Битовая глубина : 8 бит
Тип развёртки : Прогрессивная
Бит/(Пиксели*Кадры) : 0.174
Размер потока : 6,33 Гбайт (89%)
Заголовок : www.60-fps.org
Язык : English
Default : Да
Forced : Нет
Основные цвета : BT.709
Характеристики трансфера : BT.709
Коэффициенты матрицы : BT.709
colour_range : Limited
Аудио #1
Идентификатор : 2
Формат : AC-3
Формат/Информация : Audio Coding 3
Расширение режима : CM (complete main)
Параметр Endianness формата : Big
Идентификатор кодека : A_AC3
Продолжительность : 1 ч. 34 м.
Вид битрейта : Постоянный
Битрейт : 384 Кбит/сек
Каналы : 6 каналов
Расположение каналов : Front: L C R, Side: L R, LFE
Частота : 48,0 КГц
Битовая глубина : 16 бит
Метод сжатия : С потерями
Размер потока : 259 Мбайт (4%)
Заголовок : Дубляж iTunes
Язык : Russian
Default : Да
Forced : Нет
Аудио #2
Идентификатор : 3
Формат : AC-3
Формат/Информация : Audio Coding 3
Расширение режима : CM (complete main)
Параметр Endianness формата : Big
Идентификатор кодека : A_AC3
Продолжительность : 1 ч. 34 м.
Вид битрейта : Постоянный
Битрейт : 640 Кбит/сек
Каналы : 6 каналов
Расположение каналов : Front: L C R, Side: L R, LFE
Частота : 48,0 КГц
Битовая глубина : 16 бит
Метод сжатия : С потерями
Размер потока : 432 Мбайт (6%)
Заголовок : ENG
Язык : English
Default : Нет
Forced : Нет
Текст #1
Идентификатор : 4
Формат : UTF-8
Идентификатор кодека : S_TEXT/UTF8
Идентификатор кодека/Информация : UTF-8 Plain Text
Язык : English
Default : Нет
Forced : Нет
Текст #2
Идентификатор : 5
Формат : UTF-8
Идентификатор кодека : S_TEXT/UTF8
Идентификатор кодека/Информация : UTF-8 Plain Text
Язык : English
Default : Нет
Forced : Нет
Текст #3
Идентификатор : 6
Формат : UTF-8
Идентификатор кодека : S_TEXT/UTF8
Идентификатор кодека/Информация : UTF-8 Plain Text
Заголовок : SDH
Язык : English
Default : Нет
Forced : Нет
Меню
00:00:00.000 : en:00:00:00.000
00:05:37.921 : en:00:05:37.921
00:12:25.161 : en:00:12:25.161
00:16:32.742 : en:00:16:32.742
00:25:00.541 : en:00:25:00.541
00:30:11.768 : en:00:30:11.768
00:36:11.544 : en:00:36:11.544
00:41:55.638 : en:00:41:55.638
00:46:31.706 : en:00:46:31.706
00:52:22.014 : en:00:52:22.014
00:57:59.726 : en:00:57:59.726
01:03:39.149 : en:01:03:39.149
01:10:19.966 : en:01:10:19.966
01:16:33.839 : en:01:16:33.839
01:21:17.831 : en:01:21:17.831
01:28:20.212 : en:01:28:20.212

Релиз подготовлен 60 - fps

[60-fps.org].t2019.torrent
Торрент: Зарегистрирован [ 2016-05-15 11:49 ] · CD6A1F635C8D059AE2062EED398A58938A19DBE8

Скачать .torrent

Скачать

18 KB

Статус: проверено
Скачан: 21 раз
Поблагодарили:
Размер: 7,15 GB
 
Похожие Темы


Последний раз редактировалось: Kryl (2016-04-25 22:57), всего редактировалось 1 раз

[Цитировать]
ENIGMA

Огромное Спасибо! Овации
 
Показать сообщения:    

Текущее время: 22-Фев 16:26

Часовой пояс: UTC + 3


Вы не можете начинать темы
Вы не можете отвечать на сообщения
Вы не можете редактировать свои сообщения
Вы не можете удалять свои сообщения
Вы не можете голосовать в опросах
Вы не можете прикреплять файлы к сообщениям
Вы можете скачивать файлы