[Цитировать]
Kryl

«Они не только разбогатеют... но и отомстят»- Информация
Название: Поменяться местами
Оригинальное название: Trading Places
Год выхода: 1983
Жанр: комедия
Режиссер: Джон Лэндис
Сценарий: Тимоти Харрис, Хершел Уайнгрод
Продюсер: Аарон Руссо, Джордж Фолси мл., Ирвин Руссо
В ролях: Эдди Мерфи, Дэн Эйкройд, Ральф Беллами, Дон Амичи, Денхолм Эллиотт, Джейми Ли Кертис, Пол Глисон, Кристин Холби, Альфред Дрэйк, Джеймс Белуши, Аль Фрэнкен, Том Мардиросян, Николас Гест, Джанкарло Эспозито, Эдди Джонс, Билл Коббс, Бо Диддли
--Сюжет:
Жизнь респектабельного бизнесмена Луиса Уинтропа Третьего, управляющего богатейшей компании с Уолл-Стрит, круто меняется после того, как его боссы, братья Дьюк, заключают необычное пари. Один из братьев посчитал, что управлять компанией может кто угодно, даже самый отъявленный и необразованный проходимец.
Поставив на кон доллар, братья находят для своего эксперимента уличного мошенника Билли Рэя Валентайна, которому и предлагают возглавить компанию вместо Уинтропа. Эксцентрическая парочка Дьюков и не подозревает, что, поменяв местами проходимца и крупного бизнесмена, они рискуют гораздо больше, чем могли бы себе представить.
- Страна: США
Продолжительность: 01:56:22

Файл
Кодек: MPEG4/ISO/AVC H.264
Формат: MKV
Качество: BDRip 720p | 60 fps
Видео: 1280 x 720 (1.778) | 59.940 fps | 10.0 Мбит/сек
Аудио 1: AC3 | 2.0 | 48 kHz | 192 kbps | 16 bit | Профессиональный многоголосый - R5 |
Аудио 2: AC3 | 2.0 | 48 kHz | 192 kbps | 16 bit | Профессиональный двухголосый - Премьер Видео |
Аудио 3: AC3 | 5.1 | 48 kHz | 448 kbps | 16 bit | Авторский одноголосый - А.Гаврилов |
Аудио 4: AC3 | 5.1 | 48 kHz | 448 kbps | 16 bit | Авторский одноголосый - Л.Володарский |
Аудио 5: AC3 | 2.0 | 48 kHz | 192 kbps | 16 bit | Авторский одноголосый - Л.Володарский, старая версия |
Аудио 6: AC3 | 2.0 | 48 kHz | 192 kbps | 16 bit | Авторский одноголосый - В.Горчаков |
Аудио 7: AC3 | 2.0 | 48 kHz | 192 kbps | 16 bit | Авторский одноголосый - М.Иванов |
Аудио 8: AC3 | 5.1 | 48 kHz | 448 kbps | 16 bit | ENG |
Субтитры: Русские (Voronine), английские

MedifInfo

Видео
Идентификатор : 1
Формат : AVC
Формат/Информация : Advanced Video Codec
Профиль формата : High@L4.1
Параметр CABAC формата : Да
Параметр ReFrames формата : 5 кадров
Идентификатор кодека : V_MPEG4/ISO/AVC
Продолжительность : 1 ч. 56 м.
Битрейт : 9999 Кбит/сек
Ширина : 1280 пикселей
Высота : 720 пикселей
Соотношение сторон : 16:9
Режим частоты кадров : Постоянный
Частота кадров : 59,880 кадров/сек
Частота кадров в оригинале : 59,940 кадров/сек
Цветовое пространство : YUV
Субдискретизация насыщенности : 4:2:0
Битовая глубина : 8 бит
Тип развёртки : Прогрессивная
Бит/(Пиксели*Кадры) : 0.181
Размер потока : 7,93 Гбайт (80%)
Заголовок : www.60-fps.org
Библиотека кодирования : x264 core 148 r2638 7599210
Настройки программы : cabac=1 / ref=5 / deblock=1:-3:-3 / analyse=0x3:0x113 / me=umh / subme=8 / psy=1 / psy_rd=1.00:0.25 / mixed_ref=1 / me_range=32 / chroma_me=1 / trellis=1 / 8x8dct=1 / cqm=0 / deadzone=6,6 / fast_pskip=1 / chroma_qp_offset=-4 / threads=12 / lookahead_threads=2 / sliced_threads=0 / nr=0 / decimate=0 / interlaced=0 / bluray_compat=0 / constrained_intra=0 / bframes=3 / b_pyramid=2 / b_adapt=2 / b_bias=0 / direct=3 / weightb=1 / open_gop=0 / weightp=2 / keyint=599 / keyint_min=59 / scenecut=40 / intra_refresh=0 / rc_lookahead=50 / rc=2pass / mbtree=1 / bitrate=9999 / ratetol=1.0 / qcomp=0.80 / qpmin=0 / qpmax=69 / qpstep=4 / cplxblur=20.0 / qblur=0.5 / vbv_maxrate=62500 / vbv_bufsize=78125 / nal_hrd=none / filler=0 / ip_ratio=1.10 / aq=1:0.50
Default : Да
Forced : Нет
Аудио #1
Идентификатор : 2
Формат : AC-3
Формат/Информация : Audio Coding 3
Расширение режима : CM (complete main)
Параметр Endianness формата : Big
Идентификатор кодека : A_AC3
Продолжительность : 1 ч. 56 м.
Вид битрейта : Постоянный
Битрейт : 192 Кбит/сек
Каналы : 2 канала
Расположение каналов : Front: L R
Частота : 48,0 КГц
Битовая глубина : 16 бит
Метод сжатия : С потерями
Размер потока : 160 Мбайт (2%)
Заголовок : Многоголосый (R5)
Язык : Russian
Default : Да
Forced : Нет
Аудио #2
Идентификатор : 3
Формат : AC-3
Формат/Информация : Audio Coding 3
Расширение режима : CM (complete main)
Параметр Endianness формата : Big
Идентификатор кодека : A_AC3
Продолжительность : 1 ч. 56 м.
Вид битрейта : Постоянный
Битрейт : 192 Кбит/сек
Каналы : 2 канала
Расположение каналов : Front: L R
Частота : 48,0 КГц
Битовая глубина : 16 бит
Метод сжатия : С потерями
Размер потока : 160 Мбайт (2%)
Заголовок : Двухголосый (Премьер Видео)
Язык : Russian
Default : Нет
Forced : Нет
Аудио #3
Идентификатор : 4
Формат : AC-3
Формат/Информация : Audio Coding 3
Расширение режима : CM (complete main)
Параметр Endianness формата : Big
Идентификатор кодека : A_AC3
Продолжительность : 1 ч. 56 м.
Вид битрейта : Постоянный
Битрейт : 448 Кбит/сек
Каналы : 6 каналов
Расположение каналов : Front: L C R, Side: L R, LFE
Частота : 48,0 КГц
Битовая глубина : 16 бит
Метод сжатия : С потерями
Размер потока : 373 Мбайт (4%)
Заголовок : Гаврилов
Язык : Russian
Default : Нет
Forced : Нет
Аудио #4
Идентификатор : 5
Формат : AC-3
Формат/Информация : Audio Coding 3
Расширение режима : CM (complete main)
Параметр Endianness формата : Big
Идентификатор кодека : A_AC3
Продолжительность : 1 ч. 56 м.
Вид битрейта : Постоянный
Битрейт : 448 Кбит/сек
Каналы : 6 каналов
Расположение каналов : Front: L C R, Side: L R, LFE
Частота : 48,0 КГц
Битовая глубина : 16 бит
Метод сжатия : С потерями
Размер потока : 373 Мбайт (4%)
Заголовок : Володарский
Язык : Russian
Default : Нет
Forced : Нет
Аудио #5
Идентификатор : 6
Формат : AC-3
Формат/Информация : Audio Coding 3
Расширение режима : CM (complete main)
Параметр Endianness формата : Big
Идентификатор кодека : A_AC3
Продолжительность : 1 ч. 56 м.
Вид битрейта : Постоянный
Битрейт : 192 Кбит/сек
Каналы : 2 канала
Расположение каналов : Front: L R
Частота : 48,0 КГц
Битовая глубина : 16 бит
Метод сжатия : С потерями
Размер потока : 160 Мбайт (2%)
Заголовок : Володарский (старая версия)
Язык : Russian
Default : Нет
Forced : Нет
Аудио #6
Идентификатор : 7
Формат : AC-3
Формат/Информация : Audio Coding 3
Расширение режима : CM (complete main)
Параметр Endianness формата : Big
Идентификатор кодека : A_AC3
Продолжительность : 1 ч. 56 м.
Вид битрейта : Постоянный
Битрейт : 160 Кбит/сек
Каналы : 2 канала
Расположение каналов : Front: L R
Частота : 48,0 КГц
Битовая глубина : 16 бит
Метод сжатия : С потерями
Размер потока : 133 Мбайт (1%)
Заголовок : Горчаков
Язык : Russian
Default : Нет
Forced : Нет
Аудио #7
Идентификатор : 8
Формат : AC-3
Формат/Информация : Audio Coding 3
Расширение режима : CM (complete main)
Параметр Endianness формата : Big
Идентификатор кодека : A_AC3
Продолжительность : 1 ч. 56 м.
Вид битрейта : Постоянный
Битрейт : 160 Кбит/сек
Каналы : 2 канала
Расположение каналов : Front: L R
Частота : 48,0 КГц
Битовая глубина : 16 бит
Метод сжатия : С потерями
Размер потока : 133 Мбайт (1%)
Заголовок : Иванов
Язык : Russian
Default : Нет
Forced : Нет
Аудио #8
Идентификатор : 9
Формат : AC-3
Формат/Информация : Audio Coding 3
Расширение режима : CM (complete main)
Параметр Endianness формата : Big
Идентификатор кодека : A_AC3
Продолжительность : 1 ч. 56 м.
Вид битрейта : Постоянный
Битрейт : 448 Кбит/сек
Каналы : 6 каналов
Расположение каналов : Front: L C R, Side: L R, LFE
Частота : 48,0 КГц
Битовая глубина : 16 бит
Метод сжатия : С потерями
Размер потока : 373 Мбайт (4%)
Заголовок : eng
Язык : English
Default : Нет
Forced : Нет
Текст #1
Идентификатор : 10
Формат : UTF-8
Идентификатор кодека : S_TEXT/UTF8
Идентификатор кодека/Информация : UTF-8 Plain Text
Язык : Russian
Default : Нет
Forced : Нет
Текст #2
Идентификатор : 11
Формат : UTF-8
Идентификатор кодека : S_TEXT/UTF8
Идентификатор кодека/Информация : UTF-8 Plain Text
Язык : English
Default : Нет
Forced : Нет
Меню
00:00:00.000 : :Chapter 01
00:03:42.013 : :Chapter 02
00:06:28.846 : :Chapter 03
00:16:00.084 : :Chapter 04
00:18:41.078 : :Chapter 05
00:23:11.306 : :Chapter 06
00:28:51.604 : :Chapter 07
00:32:44.671 : :Chapter 08
00:39:16.937 : :Chapter 09
00:45:14.086 : :Chapter 10
00:53:56.399 : :Chapter 11
00:57:49.299 : :Chapter 12
01:01:00.615 : :Chapter 13
01:06:12.885 : :Chapter 14
01:11:49.805 : :Chapter 15
01:23:24.165 : :Chapter 16
01:27:10.058 : :Chapter 17
01:38:48.839 : :Chapter 18
01:48:45.727 : :Chapter 19
01:51:03.657 : :Chapter 20
Киношка сделана по заказу пользователя
вячеслав

Релиз подготовлен 60 - fps

[Цитировать]
ENIGMA

Спасибо! Овации
Чёткая комедия! Подмигиваю

[Цитировать]
Edik

Очень хорошая комедия ,но она у меня есть и в качестве примерно таком же!

[Цитировать]
Artemy

Классный фильм! Всегда можно пересмотреть, в 60 fps ещё не смотрел. Улыбаюсь Да
 
Показать сообщения:    

Текущее время: 09-Дек 22:23

Часовой пояс: UTC + 3


Вы не можете начинать темы
Вы не можете отвечать на сообщения
Вы не можете редактировать свои сообщения
Вы не можете удалять свои сообщения
Вы не можете голосовать в опросах
Вы не можете прикреплять файлы к сообщениям
Вы не можете скачивать файлы