«They know what scares you»- Информация
Название: Полтергейст
Оригинальное название: Poltergeist
Год выхода: 2015
Жанр: Ужасы, триллер
Режиссер: Гил Кинан
Сценарий: Стивен Спилберг, Дэвид Линдси-Эбейр, Майкл Грэйс
Продюсер: Рой Ли, Сэм Рэйми, Одри Чон
В ролях: Сэм Рокуэлл, Розмари ДеУитт, Саксон Шарбино, Кайл Кэтлетт, Кеннеди Клементс, Джаред Харрис, Джейн Адамс, Сьюзэн Хэйард, Николас Браун, Карен Ивани, Патрик Гэрроу, Дуглас Маклеод, Ив Кроуфорд, Л.А.
--Сюжет:
Когда страшные призраки забирают младшую дочь, семье приходится объединиться, чтобы спасти ее…- - Страна: США, Испания
Продолжительность: 01:40:53
-- Файл
Кодек: MPEG4/ISO/AVC H.264
Формат: MKV
Качество: BDRip-AVC
Видео: 1024x432 (2.35:1) | 59.940 fps | 4.9 Мбит/сек
Аудио: AC3 | 5.1 | 48 kHz | 448 kbps | 16 bit | Дубляж |
Субтитры: Русские

MedifInfo

Video
ID : 1
Format : AVC
Format/Info : Advanced Video Codec
Format profile : High@L4.1
Format settings, CABAC : Yes
Format settings, ReFrames : 4 frames
Codec ID : V_MPEG4/ISO/AVC
Duration : 1h 40mn
Bit rate : 4 946 Kbps
Width : 1 024 pixels
Height : 432 pixels
Display aspect ratio : 2.35:1
Frame rate : 59.940 fps
Color space : YUV
Chroma subsampling : 4:2:0
Bit depth : 8 bits
Scan type : Progressive
Bits/(Pixel*Frame) : 0.187
Stream size : 3.41 GiB (90%)
Writing library : x264 core 146 r2538 121396c
Encoding settings : cabac=1 / ref=3 / deblock=1:0:0 / analyse=0x3:0x113 / me=umh / subme=9 / psy=1 / psy_rd=1.00:0.00 / mixed_ref=1 / me_range=24 / chroma_me=1 / trellis=2 / 8x8dct=1 / cqm=0 / deadzone=21,11 / fast_pskip=1 / chroma_qp_offset=-2 / threads=12 / lookahead_threads=3 / sliced_threads=0 / nr=0 / decimate=1 / interlaced=0 / bluray_compat=0 / constrained_intra=0 / bframes=16 / b_pyramid=2 / b_adapt=2 / b_bias=0 / direct=1 / weightb=1 / open_gop=0 / weightp=2 / keyint=250 / keyint_min=25 / scenecut=40 / intra_refresh=0 / rc=2pass / mbtree=0 / bitrate=4946 / ratetol=1.0 / qcomp=0.60 / qpmin=0 / qpmax=69 / qpstep=4 / cplxblur=20.0 / qblur=0.5 / ip_ratio=1.40 / pb_ratio=1.30 / aq=1:1.00
Language : English
Default : Yes
Forced : No
Audio
ID : 2
Format : AC-3
Format/Info : Audio Coding 3
Mode extension : CM (complete main)
Codec ID : A_AC3
Duration : 1h 40mn
Bit rate mode : Constant
Bit rate : 448 Kbps
Channel(s) : 6 channels
Channel positions : Front: L C R, Side: L R, LFE
Sampling rate : 48.0 KHz
Bit depth : 16 bits
Compression mode : Lossy
Delay relative to video : 27ms
Stream size : 323 MiB (8%)
Title : Dub | DD 5.1 @ 448 kbps - Blu-Ray CEE
Language : Russian
Default : Yes
Forced : No
Text
ID : 3
Format : UTF-8
Codec ID : S_TEXT/UTF8
Codec ID/Info : UTF-8 Plain Text
Language : Russian
Default : No
Forced : No
Menu
00:00:00.000 : :(01)00:00:00:000
00:04:57.338 : :(02)00:04:57:338
00:09:55.927 : :(03)00:09:55:927
00:16:26.442 : :(04)00:16:26:442
00:20:31.730 : :(05)00:20:31:730
00:22:34.227 : :(06)00:22:34:227
00:26:31.006 : :(07)00:26:31:006
00:30:01.883 : :(08)00:30:01:883
00:35:06.353 : :(09)00:35:06:353
00:37:27.661 : :(10)00:37:27:661
00:41:41.623 : :(11)00:41:41:623
00:46:55.103 : :(12)00:46:55:103
00:49:56.617 : :(13)00:49:56:617
00:53:41.134 : :(14)00:53:41:134
01:00:08.478 : :(15)01:00:08:478
01:04:28.322 : :(16)01:04:28:322
01:06:42.498 : :(17)01:06:42:498
01:09:39.591 : :(18)01:09:39:591
01:12:37.350 : :(19)01:12:37:350
01:16:06.185 : :(20)01:16:06:185
01:19:36.563 : :(21)01:19:36:563
01:25:23.076 : :(22)01:25:23:076
01:29:56.555 : :(23)01:29:56:555
01:35:01.779 : :(24)01:35:01:779

[Цитировать]
Иван686

lдайте скорости

[Цитировать]
lukasrubiolo12

Thanks!!! Улыбаюсь Улыбаюсь Улыбаюсь
 
Показать сообщения:    

Текущее время: 10-Дек 19:37

Часовой пояс: UTC + 3


Вы не можете начинать темы
Вы не можете отвечать на сообщения
Вы не можете редактировать свои сообщения
Вы не можете удалять свои сообщения
Вы не можете голосовать в опросах
Вы не можете прикреплять файлы к сообщениям
Вы не можете скачивать файлы