[Цитировать]
Kryl

--Полина Гагарина — Я Не Буду (2015) WEBRip 1080p | 60 fps --Информация о Клипе
Исполнитель: Полина Гагарина
Название: Я Не Буду
Год выхода: 2015
Продолжительность: 00:03:40
О клипе:
Новый клип Полины Гагариной на песню «Я не буду», музыку к которой написала сама артистка, создавался при активной поддержке коллег певицы.
Режиссером видео выступил Алексей Голубев. Съемки проходили в резиденции Эмина Агаларова, а главного героя сыграл актер Владимир Яглыч. Кстати, кандидатур на эту роль было много, поэтому окончательный выбор сделал супруг Полины — Дмитрий Исхаков.
«Песня заставляет или энергично танцевать, или серьезно задуматься над извечным вопросом отношений мужчины и женщины», — говорится в описании видео.
-Файл
Кодек: MPEG4/ISO/AVC/ H.264
Формат: MKV
Качество: WEBRip 1080p
Видео: 1920 x 816 (2.353) at 60.000 fps 5.0 Мбит/сек
Аудио: MP3 | 320 Кбит/сек | 44.1 KHz | 2 channels

MI

Видео
Идентификатор : 1
Формат : AVC
Формат/Информация : Advanced Video Codec
Профиль формата : High@L4.2
Параметр CABAC формата : Да
Параметр ReFrames формата : 3 кадра
Идентификатор кодека : V_MPEG4/ISO/AVC
Продолжительность : 3 м. 40 с.
Вид битрейта : Переменный
Битрейт : 4881 Кбит/сек
Максимальный битрейт : 5000 Кбит/сек
Ширина : 1920 пикселей
Высота : 816 пикселей
Соотношение сторон : 2,35:1
Режим частоты кадров : Постоянный
Частота кадров : 60,000 кадров/сек
Стандарт вещания : PAL
Цветовое пространство : YUV
Субдискретизация насыщенности : 4:2:0
Битовая глубина : 8 бит
Тип развёртки : Прогрессивная
Бит/(Пиксели*Кадры) : 0.052
Размер потока : 128 Мбайт (92%)
Заголовок : www.60-fps.org
Язык : English
Default : Да
Forced : Нет
Основные цвета : BT.709
Характеристики трансфера : BT.709
Коэффициенты матрицы : BT.709
colour_range : Limited
Аудио
Идентификатор : 2
Формат : MPEG Audio
Версия формата : Version 1
Профиль формата : Layer 3
Режим : Joint stereo
Расширение режима : MS Stereo
Идентификатор кодека : A_MPEG/L3
Идентификатор кодека/Подсказка : MP3
Продолжительность : 3 м. 40 с.
Вид битрейта : Постоянный
Битрейт : 320 Кбит/сек
Каналы : 2 канала
Частота : 44,1 КГц
Метод сжатия : С потерями
Размер потока : 8,40 Мбайт (6%)
Библиотека кодирования : LAME3.99.5
Default : Да
Forced : Нет

Релиз подготовлен 60 - fps

[60-fps.org].t1340.torrent
Торрент: Зарегистрирован [ 2015-10-30 12:46 ] · D77F620303C4A3459B852D34F9928136CBA7FE36

Скачать .torrent

Скачать

11 KB

Статус: проверено
Скачан: 34 раз
Поблагодарили:
Размер: 139 MB
 
Похожие Темы
 
Показать сообщения:    

Текущее время: 20-Фев 07:10

Часовой пояс: UTC + 3


Вы не можете начинать темы
Вы не можете отвечать на сообщения
Вы не можете редактировать свои сообщения
Вы не можете удалять свои сообщения
Вы не можете голосовать в опросах
Вы не можете прикреплять файлы к сообщениям
Вы можете скачивать файлы