[Цитировать]
Kryl

--Полина Гагарина - Монстры На Каникулах 2 (2015) WEBRip 1080p | 60 fps --Информация о Клипе
Исполнитель: Полина Гагарина
Название: Монстры На Каникулах 2
Год выхода: 2015
Продолжительность: 00:03:54
О клипе:
В 2015 году на экраны страны выходит новая часть мультфильма «Монстры на каникулах» и сингл под названием «Не пара» стал результатом совместной, более чем плодотворной работы Полины Гагариной и Sony Pictures Animation. Зажигательный саундтрек к популярному во всем мире анимационному фильму «Монстры на каникулах 2» окунет вас с яркий и красочный мир монстров. В видеоклипе с Полиной Гагариной снялись студенты детской школы-студии Sound Media Kids. Помимо исполнения заглавной песни Полина Гагарина озвучила героиню-вампиршу мультфильма. Премьерный показ на территории РФ состоится 20 октября.
-Файл
Кодек: MPEG4/ISO/AVC/ H.264
Формат: MKV
Качество: WEBRip 1080p
Видео: 1920 x 1036 (1.853) at 60.000 fps 5.0 Мбит/сек
Аудио: MP3 | 320 Кбит/сек | 44.1 KHz | 2 channels

MI

Видео
Идентификатор : 1
Формат : AVC
Формат/Информация : Advanced Video Codec
Профиль формата : High@L4.2
Параметр CABAC формата : Да
Параметр ReFrames формата : 3 кадра
Идентификатор кодека : V_MPEG4/ISO/AVC
Продолжительность : 3 м. 54 с.
Вид битрейта : Переменный
Битрейт : 4897 Кбит/сек
Максимальный битрейт : 5000 Кбит/сек
Ширина : 1920 пикселей
Высота : 1036 пикселей
Соотношение сторон : 1,85:1
Режим частоты кадров : Постоянный
Частота кадров : 60,000 кадров/сек
Стандарт вещания : PAL
Цветовое пространство : YUV
Субдискретизация насыщенности : 4:2:0
Битовая глубина : 8 бит
Тип развёртки : Прогрессивная
Бит/(Пиксели*Кадры) : 0.041
Размер потока : 137 Мбайт (92%)
Заголовок : www.60-fps.org
Язык : English
Default : Да
Forced : Нет
Основные цвета : BT.709
Характеристики трансфера : BT.709
Коэффициенты матрицы : BT.709
colour_range : Limited
Аудио
Идентификатор : 2
Формат : MPEG Audio
Версия формата : Version 1
Профиль формата : Layer 3
Режим : Joint stereo
Расширение режима : MS Stereo
Идентификатор кодека : A_MPEG/L3
Идентификатор кодека/Подсказка : MP3
Продолжительность : 3 м. 53 с.
Вид битрейта : Постоянный
Битрейт : 320 Кбит/сек
Каналы : 2 канала
Частота : 44,1 КГц
Метод сжатия : С потерями
Размер потока : 8,92 Мбайт (6%)
Заголовок : MP3
Библиотека кодирования : LAMEЄЄ
Default : Да
Forced : Нет

Релиз подготовлен 60 - fps

 
Показать сообщения:    

Текущее время: 05-Дек 05:21

Часовой пояс: UTC + 3


Вы не можете начинать темы
Вы не можете отвечать на сообщения
Вы не можете редактировать свои сообщения
Вы не можете удалять свои сообщения
Вы не можете голосовать в опросах
Вы не можете прикреплять файлы к сообщениям
Вы не можете скачивать файлы