Rammstein (БЕЗ ЦЕНЗУРЫ)| WEBRip 1080p | 60 fps Britney Spears - Oops! I Did It Again Uncut (2009) HD 1080p | 60 fps Jennifer Lopez ft. Iggy Azalea - Booty (2014) Full HD 1080p | 60 fps Britney Spears - ...Baby One More Time (2009) Full HD 1080p | 60 fps BLACKPINK | WEBRip 1080p | 60 fps Sia - Chandelier (2014 ) Full HD 1080p | 60 fps Dan Balan - Chica Bomb (2010) WEBRip 1080p | 60 fps Lady Gaga - Poker Face (2009) Full HD 1080p | 60 fps
  1. Longevity:
    6 years 1 month
    Posts:
    2418
    Gender:
    Male
    --Полина Гагарина - Монстры На Каникулах 2 (2015) WEBRip 1080p | 60 fps --Информация о Клипе
    Исполнитель: Полина Гагарина
    Название: Монстры На Каникулах 2
    Год выхода: 2015
    Продолжительность: 00:03:54
    О клипе:
    В 2015 году на экраны страны выходит новая часть мультфильма «Монстры на каникулах» и сингл под названием «Не пара» стал результатом совместной, более чем плодотворной работы Полины Гагариной и Sony Pictures Animation. Зажигательный саундтрек к популярному во всем мире анимационному фильму «Монстры на каникулах 2» окунет вас с яркий и красочный мир монстров. В видеоклипе с Полиной Гагариной снялись студенты детской школы-студии Sound Media Kids. Помимо исполнения заглавной песни Полина Гагарина озвучила героиню-вампиршу мультфильма. Премьерный показ на территории РФ состоится 20 октября.
    -Файл
    Кодек: MPEG4/ISO/AVC/ H.264
    Формат: MKV
    Качество: WEBRip 1080p
    Видео: 1920 x 1036 (1.853) at 60.000 fps 5.0 Мбит/сек
    Аудио: MP3 | 320 Кбит/сек | 44.1 KHz | 2 channels

    MI

    Видео
    Идентификатор : 1
    Формат : AVC
    Формат/Информация : Advanced Video Codec
    Профиль формата : High@L4.2
    Параметр CABAC формата : Да
    Параметр ReFrames формата : 3 кадра
    Идентификатор кодека : V_MPEG4/ISO/AVC
    Продолжительность : 3 м. 54 с.
    Вид битрейта : Переменный
    Битрейт : 4897 Кбит/сек
    Максимальный битрейт : 5000 Кбит/сек
    Ширина : 1920 пикселей
    Высота : 1036 пикселей
    Соотношение сторон : 1,85:1
    Режим частоты кадров : Постоянный
    Частота кадров : 60,000 кадров/сек
    Стандарт вещания : PAL
    Цветовое пространство : YUV
    Субдискретизация насыщенности : 4:2:0
    Битовая глубина : 8 бит
    Тип развёртки : Прогрессивная
    Бит/(Пиксели*Кадры) : 0.041
    Размер потока : 137 Мбайт (92%)
    Заголовок : www.60-fps.org
    Язык : English
    Default : Да
    Forced : Нет
    Основные цвета : BT.709
    Характеристики трансфера : BT.709
    Коэффициенты матрицы : BT.709
    colour_range : Limited
    Аудио
    Идентификатор : 2
    Формат : MPEG Audio
    Версия формата : Version 1
    Профиль формата : Layer 3
    Режим : Joint stereo
    Расширение режима : MS Stereo
    Идентификатор кодека : A_MPEG/L3
    Идентификатор кодека/Подсказка : MP3
    Продолжительность : 3 м. 53 с.
    Вид битрейта : Постоянный
    Битрейт : 320 Кбит/сек
    Каналы : 2 канала
    Частота : 44,1 КГц
    Метод сжатия : С потерями
    Размер потока : 8,92 Мбайт (6%)
    Заголовок : MP3
    Библиотека кодирования : LAMEЄЄ
    Default : Да
    Forced : Нет

    Release was prepared by 60 - fps



You cannot post new topics in this forum
You cannot reply to topics in this forum
You cannot edit your posts in this forum
You cannot delete your posts in this forum
You cannot vote in polls in this forum
You cannot attach files in this forum
You cannot download files in this forum