[Цитировать]
envy

Информация о фильме
Русское название: Пол: Секретный материальчик
Оригинальное название: Paul
Год выхода: 2011
Жанр: фантастика, комедия, приключения
Режиссер: Грег Моттола
Выпущено: США, Великобритания
Продолжительность: 01:43:40
Перевод: Дублированный
В ролях: Саймон Пегг, Ник Фрост, Джереми Оуэн, Джефри Тэмбор, Дэвид Хаус, Дженнифер Грэйнджер, Нельсон Асценсио, Бобби Ли, Джейн Линч, Дэвид Кокнер-Сюжет фильма
Два английских гика отправляются на одно из самых значимых фанатских событий в области фантастики — конвент ComicCon в Америке. По пути, неподалёку от известной Зоны 51, они встречают сбежавшего инопланетянина по имени Пол, который просит помочь ему добраться домой. Пытаясь спастись от правительственных агентов, герои случайно похищают женщину и натыкаются на обкуренную свидетельницу аварийной посадки Пола на Землю.-Файл
Качество: BDRip 720p (исходник Blu-ray Disc)
Видео: 1280x544, 3524 Кбит/сек, 60.000 кадр/сек, AVC, x264, High@L4.1, 2.35:1, 0.084 Бит/[Пиксели*Кадры]
Аудио 1: AC-3, 448 Кбит/сек, 6 канала(ов), 48,0 КГц - Дублированный / Русский
Аудио 2: AC-3, 448 Кбит/сек, 6 канала(ов), 48,0 КГц - Оригинал / Английский
Субтитры: Русские | Полные, Английские | Полные
Форсированные субтитры: Русские
Чаптеры (Главы): Нет-
Автор Рипа: Сообщество: -

Скриншоты

MediaInfo

Format : Matroska
Format version : Version 2
File size : 3.27 GiB
Duration : 1h 43mn
Overall bit rate : 4 510 Kbps
Movie name : Пол: Секретный материальчик.(2011).BDRip.720p.[envy].[60fps]
Encoded date : UTC 2015-08-06 20:49:09
Writing application : mkvmerge v5.8.0 ('No Sleep / Pillow') built on Sep 2 2012 15:37:04
Writing library : libebml v1.2.3 + libmatroska v1.3.0
Video
ID : 1
Format : AVC
Format/Info : Advanced Video Codec
Format profile : High@L4.1
Format settings, CABAC : Yes
Format settings, ReFrames : 9 frames
Codec ID : V_MPEG4/ISO/AVC
Duration : 1h 43mn
Bit rate : 3 524 Kbps
Width : 1 280 pixels
Height : 544 pixels
Display aspect ratio : 2.35:1
Frame rate mode : Constant
Frame rate : 60.000 fps
Color space : YUV
Chroma subsampling : 4:2:0
Bit depth : 8 bits
Scan type : Progressive
Bits/(Pixel*Frame) : 0.084
Stream size : 2.55 GiB (78%)
Title : Пол: Секретный материальчик.(2011).BDRip.720p.[envy].[60fps]
Writing library : x264 core 146 r2538 121396c
Encoding settings : cabac=1 / ref=9 / deblock=1:0:0 / analyse=0x3:0x113 / me=umh / subme=10 / psy=1 / psy_rd=1.00:0.00 / mixed_ref=1 / me_range=24 / chroma_me=1 / trellis=2 / 8x8dct=1 / cqm=0 / deadzone=21,11 / fast_pskip=1 / chroma_qp_offset=-2 / threads=12 / lookahead_threads=1 / sliced_threads=0 / nr=0 / decimate=1 / interlaced=0 / bluray_compat=0 / constrained_intra=0 / bframes=5 / b_pyramid=2 / b_adapt=2 / b_bias=0 / direct=3 / weightb=1 / open_gop=0 / weightp=2 / keyint=250 / keyint_min=25 / scenecut=40 / intra_refresh=0 / rc_lookahead=50 / rc=crf / mbtree=1 / crf=19.0 / qcomp=0.60 / qpmin=0 / qpmax=69 / qpstep=4 / vbv_maxrate=14000 / vbv_bufsize=14000 / crf_max=0.0 / nal_hrd=none / filler=0 / ip_ratio=1.40 / aq=3:1.00
Language : English
Default : Yes
Forced : No
Audio #1
ID : 2
Format : AC-3
Format/Info : Audio Coding 3
Mode extension : CM (complete main)
Format settings, Endianness : Big
Codec ID : A_AC3
Duration : 1h 43mn
Bit rate mode : Constant
Bit rate : 448 Kbps
Channel(s) : 6 channels
Channel positions : Front: L C R, Side: L R, LFE
Sampling rate : 48.0 KHz
Compression mode : Lossy
Stream size : 332 MiB (10%)
Title : Dub
Language : Russian
Default : Yes
Forced : No
Audio #2
ID : 3
Format : AC-3
Format/Info : Audio Coding 3
Mode extension : CM (complete main)
Format settings, Endianness : Big
Codec ID : A_AC3
Duration : 1h 43mn
Bit rate mode : Constant
Bit rate : 448 Kbps
Channel(s) : 6 channels
Channel positions : Front: L C R, Side: L R, LFE
Sampling rate : 48.0 KHz
Compression mode : Lossy
Stream size : 332 MiB (10%)
Title : Eng
Language : English
Default : No
Forced : No
Text #1
ID : 4
Format : UTF-8
Codec ID : S_TEXT/UTF8
Codec ID/Info : UTF-8 Plain Text
Title : Rus forced
Language : Portuguese
Default : Yes
Forced : Yes
Text #2
ID : 5
Format : UTF-8
Codec ID : S_TEXT/UTF8
Codec ID/Info : UTF-8 Plain Text
Title : Rus full
Language : Russian
Default : No
Forced : No
Text #3
ID : 6
Format : UTF-8
Codec ID : S_TEXT/UTF8
Codec ID/Info : UTF-8 Plain Text
Title : Eng full
Default : No
Forced : No
Menu
00:00:00.000 : en:00:00:00.000
00:05:25.324 : en:00:05:25.324
00:11:20.763 : en:00:11:20.763
00:16:52.636 : en:00:16:52.636
00:23:53.890 : en:00:23:53.890
00:28:58.444 : en:00:28:58.444
00:31:24.590 : en:00:31:24.590
00:36:50.333 : en:00:36:50.333
00:40:54.618 : en:00:40:54.618
00:43:57.426 : en:00:43:57.426
00:51:13.320 : en:00:51:13.320
00:56:30.386 : en:00:56:30.386
01:00:42.346 : en:01:00:42.346
01:07:01.141 : en:01:07:01.141
01:11:41.755 : en:01:11:41.755
01:18:28.411 : en:01:18:28.411
01:21:06.486 : en:01:21:06.486
01:26:53.124 : en:01:26:53.124
01:30:45.940 : en:01:30:45.940
01:35:29.640 : en:01:35:29.640
 
Показать сообщения:    

Текущее время: 25-Май 00:26

Часовой пояс: UTC + 3


Вы не можете начинать темы
Вы не можете отвечать на сообщения
Вы не можете редактировать свои сообщения
Вы не можете удалять свои сообщения
Вы не можете голосовать в опросах
Вы не можете прикреплять файлы к сообщениям
Вы не можете скачивать файлы