1. Longevity:
    7 years
    Posts:
    2413
    Gender:
    Male
    «Представьте себе: вас больше нет и кто-то другой живет в вашем теле»- Информация
    Название: Похитители тел
    Оригинальное название: Body Snatchers
    Год выхода: 1993
    Жанр: ужасы, фантастика, триллер, детектив
    Режиссер: Абель Феррара
    Сценарий: Стюарт Гордон, Деннис Паоли, Николас Сейнт-Джон
    Продюсер: Роберт Х. Соло, Кимберли Брент, Майкл Джаффе
    В ролях: Габриель Анвар, Терри Кинни, Билли Уэрт, Райлли Мёрфи, Мег Тилли, Кристин Элиз, Р. Ли Эрми, Кэтлин Дойл, Форест Уитакер, Дж. Элвис Филлипс
    --Сюжет:
    Не спите. Потому что именно во время сна это и случается. Именно тогда их щупальца проникают в ваши уши и ноздри. И вот вы уже больше не вы. Вы похищены, вы стали жертвой «похитителей тел».- Страна: США
    Продолжительность: 01:27:08

    Файл
    Кодек: MPEG4/ISO/AVC/H.264
    Формат: MKV
    Качество: BDRip 720p | 60 fps
    Видео: 1280x536 | 59.940 fps | 4.2 Мбит/сек
    Аудио 1: AC3 | 2.0 | 48 kHz | 192 kbps | 16 bit | Дубляж |
    Аудио 2: AC3 | 2.0 | 48 kHz | 192 kbps | 16 bit | Многоголосый закадровый |
    Аудио 3: AC3 | 2.0 | 48 kHz | 192 kbps | 16 bit | Двухголосый закадровый - ОРТ |
    Аудио 4: AC3 | 5.1 | 48 kHz | 640 kbps | 16 bit | Одноголосый закадровый - Живов |
    Аудио 5: AC3 | 5.1 | 48 kHz | 640 kbps | 16 bit | Одноголосый закадровый - Горчаков |
    Аудио 6: AC3 | 2.0 | 48 kHz | 192 kbps | 16 bit | Одноголосый закадровый - Гаврилов |
    Аудио 7: AC3 | 5.1 | 48 kHz | 640 kbps | 16 bit | ENG |
    Субтитры: Русские, Eng

    MedifInfo

    Video
    ID : 1
    Format : AVC
    Format/Info : Advanced Video Codec
    Format profile : [email protected]
    Format settings, CABAC : Yes
    Format settings, ReFrames : 9 frames
    Codec ID : V_MPEG4/ISO/AVC
    Duration : 1 h 27 min
    Bit rate : 4 291 kb/s
    Width : 1 280 pixels
    Height : 536 pixels
    Display aspect ratio : 2.40:1
    Frame rate mode : Constant
    Frame rate : 59.940 (60000/1001) FPS
    Color space : YUV
    Chroma subsampling : 4:2:0
    Bit depth : 8 bits
    Scan type : Progressive
    Bits/(Pixel*Frame) : 0.104
    Stream size : 2.61 GiB (60%)
    Writing library : x264 core 146 r2538 121396c
    Encoding settings : cabac=1 / ref=9 / deblock=1:0:0 / analyse=0x3:0x113 / me=umh / subme=9 / psy=1 / psy_rd=1.00:0.00 / mixed_ref=1 / me_range=24 / chroma_me=1 / trellis=2 / 8x8dct=1 / cqm=0 / deadzone=21,11 / fast_pskip=0 / chroma_qp_offset=-2 / threads=12 / lookahead_threads=1 / sliced_threads=0 / nr=0 / decimate=1 / interlaced=0 / bluray_compat=0 / constrained_intra=0 / bframes=5 / b_pyramid=2 / b_adapt=2 / b_bias=0 / direct=3 / weightb=1 / open_gop=0 / weightp=2 / keyint=250 / keyint_min=25 / scenecut=40 / intra_refresh=0 / rc_lookahead=40 / rc=crf / mbtree=0 / crf=17.5 / qcomp=0.60 / qpmin=0 / qpmax=69 / qpstep=4 / vbv_maxrate=14000 / vbv_bufsize=14000 / crf_max=0.0 / nal_hrd=none / filler=0 / ip_ratio=1.40 / pb_ratio=1.30 / aq=3:1.00
    Language : English
    Default : Yes
    Forced : No
    Audio #1
    ID : 2
    Format : AC-3
    Format/Info : Audio Coding 3
    Mode extension : CM (complete main)
    Format settings, Endianness : Big
    Codec ID : A_AC3
    Duration : 1 h 27 min
    Bit rate mode : Constant
    Bit rate : 192 kb/s
    Channel(s) : 2 channels
    Channel positions : Front: L R
    Sampling rate : 48.0 kHz
    Frame rate : 31.250 FPS (1536 spf)
    Compression mode : Lossy
    Stream size : 120 MiB (3%)
    Title : Dub
    Language : Russian
    Default : Yes
    Forced : No
    Audio #2
    ID : 3
    Format : AC-3
    Format/Info : Audio Coding 3
    Mode extension : CM (complete main)
    Format settings, Endianness : Big
    Codec ID : A_AC3
    Duration : 1 h 27 min
    Bit rate mode : Constant
    Bit rate : 192 kb/s
    Channel(s) : 2 channels
    Channel positions : Front: L R
    Sampling rate : 48.0 kHz
    Frame rate : 31.250 FPS (1536 spf)
    Compression mode : Lossy
    Stream size : 120 MiB (3%)
    Title : MVO
    Language : Russian
    Default : No
    Forced : No
    Audio #3
    ID : 4
    Format : AC-3
    Format/Info : Audio Coding 3
    Mode extension : CM (complete main)
    Format settings, Endianness : Big
    Codec ID : A_AC3
    Duration : 1 h 27 min
    Bit rate mode : Constant
    Bit rate : 192 kb/s
    Channel(s) : 2 channels
    Channel positions : Front: L R
    Sampling rate : 48.0 kHz
    Frame rate : 31.250 FPS (1536 spf)
    Compression mode : Lossy
    Stream size : 120 MiB (3%)
    Title : DVO OPT
    Language : Russian
    Default : No
    Forced : No
    Audio #4
    ID : 5
    Format : AC-3
    Format/Info : Audio Coding 3
    Mode extension : CM (complete main)
    Format settings, Endianness : Big
    Codec ID : A_AC3
    Duration : 1 h 27 min
    Bit rate mode : Constant
    Bit rate : 640 kb/s
    Channel(s) : 6 channels
    Channel positions : Front: L C R, Side: L R, LFE
    Sampling rate : 48.0 kHz
    Frame rate : 31.250 FPS (1536 spf)
    Compression mode : Lossy
    Stream size : 399 MiB (9%)
    Title : AVO Живов
    Language : Russian
    Default : No
    Forced : No
    Audio #5
    ID : 6
    Format : AC-3
    Format/Info : Audio Coding 3
    Mode extension : CM (complete main)
    Format settings, Endianness : Big
    Codec ID : A_AC3
    Duration : 1 h 27 min
    Bit rate mode : Constant
    Bit rate : 640 kb/s
    Channel(s) : 6 channels
    Channel positions : Front: L C R, Side: L R, LFE
    Sampling rate : 48.0 kHz
    Frame rate : 31.250 FPS (1536 spf)
    Compression mode : Lossy
    Stream size : 399 MiB (9%)
    Title : AVO Горчаков
    Language : Russian
    Default : No
    Forced : No
    Audio #6
    ID : 7
    Format : AC-3
    Format/Info : Audio Coding 3
    Mode extension : CM (complete main)
    Format settings, Endianness : Big
    Codec ID : A_AC3
    Duration : 1 h 27 min
    Bit rate mode : Constant
    Bit rate : 192 kb/s
    Channel(s) : 2 channels
    Channel positions : Front: L R
    Sampling rate : 48.0 kHz
    Frame rate : 31.250 FPS (1536 spf)
    Compression mode : Lossy
    Stream size : 120 MiB (3%)
    Title : AVO Гаврилов
    Language : Russian
    Default : No
    Forced : No
    Audio #7
    ID : 8
    Format : AC-3
    Format/Info : Audio Coding 3
    Mode extension : CM (complete main)
    Format settings, Endianness : Big
    Codec ID : A_AC3
    Duration : 1 h 27 min
    Bit rate mode : Constant
    Bit rate : 640 kb/s
    Channel(s) : 6 channels
    Channel positions : Front: L C R, Side: L R, LFE
    Sampling rate : 48.0 kHz
    Frame rate : 31.250 FPS (1536 spf)
    Compression mode : Lossy
    Stream size : 399 MiB (9%)
    Title : Eng
    Language : English
    Default : No
    Forced : No
    Text #1
    ID : 9
    Format : UTF-8
    Codec ID : S_TEXT/UTF8
    Codec ID/Info : UTF-8 Plain Text
    Title : Rus full
    Language : Russian
    Default : No
    Forced : No
    Text #2
    ID : 10
    Format : UTF-8
    Codec ID : S_TEXT/UTF8
    Codec ID/Info : UTF-8 Plain Text
    Title : Eng full
    Language : English
    Default : No
    Forced : No
    Menu
    00:00:00.000 : :Chapter 01
    00:03:58.235 : :Chapter 02
    00:06:14.706 : :Chapter 03
    00:11:07.540 : :Chapter 04
    00:12:34.127 : :Chapter 05
    00:15:37.686 : :Chapter 06
    00:18:19.221 : :Chapter 07
    00:19:44.266 : :Chapter 08
    00:21:19.442 : :Chapter 09
    00:24:29.092 : :Chapter 10
    00:29:00.777 : :Chapter 11
    00:32:31.364 : :Chapter 12
    00:36:52.126 : :Chapter 13
    00:38:46.489 : :Chapter 14
    00:40:10.157 : :Chapter 15
    00:41:28.235 : :Chapter 16
    00:43:23.516 : :Chapter 17
    00:49:24.210 : :Chapter 18
    00:50:10.672 : :Chapter 19
    00:52:52.710 : :Chapter 20
    00:55:24.987 : :Chapter 21
    01:01:56.335 : :Chapter 22
    01:05:35.097 : :Chapter 23
    01:11:45.216 : :Chapter 24
    01:14:24.126 : :Chapter 25
    01:16:53.859 : :Chapter 26
    01:19:50.702 : :Chapter 27
    01:21:59.912 : :Chapter 28
    01:23:44.394 : :Chapter 29
    01:27:07.220 : :Chapter 30


You cannot post new topics in this forum
You cannot reply to topics in this forum
You cannot edit your posts in this forum
You cannot delete your posts in this forum
You cannot vote in polls in this forum
You cannot attach files in this forum
You cannot download files in this forum