[Цитировать]
mimok

Погоня за ледниками / Chasing Ice (2012) BDRip 720p | 60fps Год выпуска: 2012
Производство: США / Diamond Docs, Exposure
Жанр: Документальный, Биография
Режиссер: Джефф Орловски
Продюсер: Джерри Аронсон, Джефф Орловски, James Billmaier
Актеры: Джеймс Балог, Свавар Джонатанссон, Луи Психойос, Китти Бун, Сильвия Эрл Ф.Д., Дэннис Димик, Адам ЛиВинтер, Джейсон Бокс, Тэд Феффер, Сюзанн Балог
Описание фильма:
Одной из главных опасностей глобального потепления чаще всего называют таяние полярных льдов — из-за этого поднимается уровень мирового океана, тонут целые страны и фатально для человека изменяется погода. Фотограф из журнала National Geographic Джеймс Балог не верил в глобальное потепление, пока по заданию редакции не съездил в Арктику и не увидел своими глазами его последствия.
Позже Балог сам собрал экспедицию для исследования арктических льдов и Гренландии. Он разработал специальное оборудование и камеры, которые позволяют отследить изменения ледников на протяжении нескольких лет. Несмотря на трудности, фотографу удалось собрать зловещие, но ужасно красивые доказательства глобального потепления — исчезновение тысячелетнего льда.-Перевод: Одноголосый закадровый "АРК-ТВ" (Игорь Тарадайкин)
Субтитры: отсутствуют

Дата мировой премьеры: 23 января 2012
Продолжительность: 01:15:14
Качество видео: BDRip 720p
Видеокодек: MPEG-4 AVC/H.264
Битрейт видео: ~ 8625 Кбит/сек
Размер кадра: 1280 x 720
Аудио: AC3 2, 48.0 KHz, 192 Kbps - Русский

MediaInfo

Общее
Уникальный идентификатор : 196426013589114803137230664091241416490 (0x93C6462E38C9522B8876FF4F7346072A)
Полное имя : D:\Торренты\Chasing Ice 60fps.org.mkv
Формат : Matroska
Версия формата : Version 2
Размер файла : 4,73 Гбайт
Продолжительность : 1 ч. 15 м.
Общий поток : 8996 Кбит/сек
Название фильма : Chasing Ice (2012) Blu-ray 1080р
Дата кодирования : UTC 2014-10-19 17:24:43
Программа кодирования : mkvmerge v5.8.0 ('No Sleep / Pillow') built on Sep 2 2012 15:37:04
Библиотека кодирования : libebml v1.2.3 + libmatroska v1.3.0
Видео
Идентификатор : 1
Формат : AVC
Формат/Информация : Advanced Video Codec
Профиль формата : High@L4.1
Параметр CABAC формата : Да
Параметр ReFrames формата : 6 кадров
Идентификатор кодека : V_MPEG4/ISO/AVC
Продолжительность : 1 ч. 15 м.
Битрейт : 8625 Кбит/сек
Ширина : 1280 пикселей
Высота : 720 пикселей
Соотношение сторон : 16:9
Режим частоты кадров : Постоянный
Частота кадров : 60,000 кадров/сек
Цветовое пространство : YUV
Субдискретизация насыщенности : 4:2:0
Битовая глубина : 8 бит
Тип развёртки : Прогрессивная
Бит/(Пиксели*Кадры) : 0.156
Размер потока : 4,53 Гбайт (96%)
Библиотека кодирования : x264 core 125 r2208 d9d2288
Настройки программы : cabac=1 / ref=6 / deblock=0:0:0 / analyse=0x3:0x133 / me=umh / subme=8 / psy=1 / psy_rd=1.00:0.15 / mixed_ref=1 / me_range=20 / chroma_me=1 / trellis=2 / 8x8dct=1 / cqm=0 / deadzone=21,11 / fast_pskip=0 / chroma_qp_offset=-3 / threads=6 / lookahead_threads=1 / sliced_threads=0 / nr=0 / decimate=0 / interlaced=0 / bluray_compat=0 / constrained_intra=0 / bframes=8 / b_pyramid=2 / b_adapt=2 / b_bias=0 / direct=1 / weightb=1 / open_gop=0 / weightp=2 / keyint=600 / keyint_min=60 / scenecut=40 / intra_refresh=0 / rc=crf / mbtree=0 / crf=16.0 / qcomp=0.63 / qpmin=10 / qpmax=51 / qpstep=4 / ip_ratio=1.40 / pb_ratio=1.30 / aq=1:1.20
Default : Да
Forced : Нет
Аудио
Идентификатор : 2
Формат : AC-3
Формат/Информация : Audio Coding 3
Расширение режима : CM (complete main)
Параметр Endianness формата : Big
Идентификатор кодека : A_AC3
Продолжительность : 1 ч. 15 м.
Вид битрейта : Постоянный
Битрейт : 192 Кбит/сек
Каналы : 2 канала
Расположение каналов : Front: L R
Частота : 48,0 КГц
Битовая глубина : 16 бит
Метод сжатия : С потерями
Размер потока : 103 Мбайт (2%)
Язык : Russian
Default : Да
Forced : Нет
Скриншоты:

Релиз подготовлен 60 - fps



Последний раз редактировалось: mimok (2016-03-16 19:48), всего редактировалось 1 раз

[Цитировать]
smith

Ау, раздавать кто-нибудь будет?

[Цитировать]
Тимур Артыков

smith, автор давно не появлялся. И никто даже не качал.

[Цитировать]
vbutov

Семпл удален

[Цитировать]
mimok

Обновил семпл и торрент файл. Стою на раздаче Подмигиваю

[Цитировать]
Тимур Артыков

mimok, встань на раздачу плиз
 
Показать сообщения:    

Текущее время: 30-Май 15:59

Часовой пояс: UTC + 3


Вы не можете начинать темы
Вы не можете отвечать на сообщения
Вы не можете редактировать свои сообщения
Вы не можете удалять свои сообщения
Вы не можете голосовать в опросах
Вы не можете прикреплять файлы к сообщениям
Вы не можете скачивать файлы