1. Longevity:
    4 years 3 months
    Posts:
    221
    Gender:
    Male
    Заказать фильмы, клипы или любое другое видео в качестве 60fps может каждый!!!
    Стоимость одного видео 50руб. !!!
    Пишите Талямба в личку, всё обсудите...
    Поездка в Америку 2 / Coming 2 America (2021) WEB-DL 1080p | 60 fps Информация
    Название: Поездка в Америку 2
    Оригинальное название: Coming 2 America
    Год выхода: 2021
    Жанр: Комедия
    Режиссер: Крэйг Брюэр
    В ролях: Эдди Мёрфи, Арсенио Холл, Жермен Фаулер, Лесли Джонс, Трэйси Морган, КиКи Лэйн, Шэри Хидли, Уэсли Снайпс, Джеймс Эрл Джонс, Джон Эймос, Тейяна Тейлор, Ванесса Белл Кэллоуэй, Пол Бейтс, Номзамо Мбата, Морган Фриман
    Страна: США
    Продолжительность: 1 ч. 48 м. 32 с.
    -- Сюжет:
    Аким вынужден вернуться в Штаты, так как узнает, что там живёт его давно потерянный сын, наследник престола Замунды. -- Файл
    Кодек: V_MPEG4/ISO/AVC
    Формат: MKV
    Качество: WEB-DL 1080p | 60 fps
    Видео: 1920 x 960 (2,000) | 59,940 fps | 15.0 Мбит/сек
    Аудио 1: AC3, 48.0 kHz, 6 ch, 448 kb/s | RUS [MVO, HDRezka studio] |
    Аудио 2: AC3, 48.0 kHz, 6 ch, 640 kb/s | RUS [MVO, Jaskier] |
    Аудио 3: E-AC3, 48.0 kHz, 6 ch, 640 kb/s | ENG Оригинал |

    MedifInfo

    Общее
    Уникальный идентификатор : 208225760966565749998953512366698427975 (0x9CA6D2A4952C2D53AD07F93CC0F87647)
    Полное имя : D:\Movie\Поездка в Америку 2.(2021).WEB-DL.1080p.60fps.mkv
    Формат : Matroska
    Версия формата : Version 2
    Размер файла : 12,7 Гбайт
    Продолжительность : 1 ч. 48 м.
    Общий поток : 16,7 Мбит/сек
    Название фильма : Поездка в Америку 2 https://60-fps.org/
    Дата кодирования : UTC 2021-03-23 08:45:40
    Программа кодирования : mkvmerge v5.8.0 ('No Sleep / Pillow') built on Sep 2 2012 15:37:04
    Библиотека кодирования : libebml v1.2.3 + libmatroska v1.3.0
    Attachments : Poster.jpg
    Видео
    Идентификатор : 1
    Формат : AVC
    Формат/Информация : Advanced Video Codec
    Профиль формата : [email protected]
    Параметр CABAC формата : Да
    Параметр ReFrames формата : 4 кадра
    Режим смешивания : Header stripping
    Идентификатор кодека : V_MPEG4/ISO/AVC
    Продолжительность : 1 ч. 48 м.
    Битрейт : 15,0 Мбит/сек
    Ширина : 1920 пикселей
    Высота : 960 пикселей
    Соотношение сторон : 2,000
    Режим частоты кадров : Постоянный
    Частота кадров : 59,940 (60000/1001) кадров/сек
    Цветовое пространство : YUV
    Субдискретизация насыщенности : 4:2:0
    Битовая глубина : 8 бит
    Тип развёртки : Прогрессивная
    Бит/(Пиксели*Кадры) : 0.136
    Размер потока : 11,1 Гбайт (88%)
    Библиотека кодирования : x264 core 146 r2538 121396c
    Настройки программы : cabac=1 / ref=4 / deblock=1:0:0 / analyse=0x3:0x113 / me=umh / subme=8 / psy=1 / psy_rd=1.00:0.25 / mixed_ref=1 / me_range=16 / chroma_me=1 / trellis=1 / 8x8dct=1 / cqm=0 / deadzone=6,6 / fast_pskip=1 / chroma_qp_offset=-4 / threads=12 / lookahead_threads=3 / sliced_threads=0 / nr=0 / decimate=0 / interlaced=0 / bluray_compat=0 / constrained_intra=0 / bframes=3 / b_pyramid=2 / b_adapt=2 / b_bias=0 / direct=3 / weightb=1 / open_gop=0 / weightp=2 / keyint=600 / keyint_min=60 / scenecut=40 / intra_refresh=0 / rc_lookahead=50 / rc=2pass / mbtree=1 / bitrate=15000 / ratetol=1.0 / qcomp=0.80 / qpmin=0 / qpmax=69 / qpstep=4 / cplxblur=20.0 / qblur=0.5 / vbv_maxrate=50000 / vbv_bufsize=50000 / nal_hrd=none / filler=0 / ip_ratio=1.10 / aq=1:0.50
    Язык : English
    Default : Да
    Forced : Нет
    Аудио #1
    Идентификатор : 2
    Формат : AC-3
    Формат/Информация : Audio Coding 3
    Расширение режима : CM (complete main)
    Параметр Endianness формата : Big
    Режим смешивания : Header stripping
    Идентификатор кодека : A_AC3
    Продолжительность : 1 ч. 48 м.
    Вид битрейта : Постоянный
    Битрейт : 448 Кбит/сек
    Каналы : 6 каналов
    Расположение каналов : Front: L C R, Side: L R, LFE
    Частота : 48,0 КГц
    Частота кадров : 31,250 кадров/сек (1536 spf)
    Битовая глубина : 16 бит
    Метод сжатия : С потерями
    Размер потока : 348 Мбайт (3%)
    Заголовок : MVO [HDRezka Studio]
    Язык : Russian
    Default : Да
    Forced : Нет
    Аудио #2
    Идентификатор : 3
    Формат : AC-3
    Формат/Информация : Audio Coding 3
    Расширение режима : CM (complete main)
    Параметр Endianness формата : Big
    Режим смешивания : Header stripping
    Идентификатор кодека : A_AC3
    Продолжительность : 1 ч. 48 м.
    Вид битрейта : Постоянный
    Битрейт : 640 Кбит/сек
    Каналы : 6 каналов
    Расположение каналов : Front: L C R, Side: L R, LFE
    Частота : 48,0 КГц
    Частота кадров : 31,250 кадров/сек (1536 spf)
    Битовая глубина : 16 бит
    Метод сжатия : С потерями
    Размер потока : 497 Мбайт (4%)
    Заголовок : MVO [Jaskier]
    Язык : Russian
    Default : Нет
    Forced : Нет
    Аудио #3
    Идентификатор : 4
    Формат : E-AC-3
    Формат/Информация : Enhanced Audio Coding 3
    Параметр Endianness формата : Big
    Режим смешивания : Header stripping
    Идентификатор кодека : A_EAC3
    Продолжительность : 1 ч. 48 м.
    Вид битрейта : Постоянный
    Битрейт : 640 Кбит/сек
    Каналы : 6 каналов
    Расположение каналов : Front: L C R, Side: L R, LFE
    Частота : 48,0 КГц
    Частота кадров : 187,500 кадров/сек (256 spf)
    Метод сжатия : С потерями
    Размер потока : 497 Мбайт (4%)
    Язык : English
    Default : Нет
    Forced : Нет

    Release was prepared by 60-fps.org

  2. Longevity:
    3 years 4 months
    Posts:
    4
    Gender:
    Unknown
    Почему фильм темный?
    25-Mar-2021 06:00 (after 1 day 17 hours)
  3. Longevity:
    4 years 3 months
    Posts:
    221
    Gender:
    Male
    12400Почему фильм темный?
    У меня ТВ LG43LH510V посмотрел с удовольствием. Темного ничего не было. Попробуйте добавить яркость на Вашем ТВ...
    26-Mar-2021 00:56 (after 18 hours)


You cannot post new topics in this forum
You cannot reply to topics in this forum
You cannot edit your posts in this forum
You cannot delete your posts in this forum
You cannot vote in polls in this forum
You cannot attach files in this forum
You cannot download files in this forum