«Wenn Jäger zu Gejagten werden»- Информация о фильме
Название: Подводная лодка
Оригинальное название: Das Boot
Год выхода: 1981
Жанр: Фантастика, боевик, приключения
Режиссер: Вольфганг Петерсен
Сценарий: Вольфганг Петерсен, Лотар-Гюнтер Буххайм
Продюсер: Гюнтер Рорбах, Майкл Биттинс, Марк Дэймон
В ролях: Юрген Прохнов, Херберт Грёнемайер, Клаус Веннеманн, Хабертус Бенгш, Мартин Земмельрогге, Бернд Таубер, Эрвин Ледер, Мартин Май, Хайнц Хёниг, Уве Оксенкнехт, Клод-Оливер Рудольф, Ян Федер, Ральф Рихтер, Йоахим Бернхард, Оливер Штрицель, Конрад Беккер, Луц Шнелль, Мартин Хемме, Рита Кадиллак, Отто Зандер, Гюнтер Лампрехт, Томас Боксхаммер, Роджер Барт, Гюнтер Франке, Кристиан Бендомир, Норберт Гронвальд, Альберт Крамль, Жан-Клод Хоффманн, Питер Патенис, Арно Крал, Кристиан Зейпольт, Гельмут Ньюмейр, Фердинанд Шааль, Вильгельм Пич
--О фильме:
Осень 1941 года. Немецкая подводная лодка отправляется в Атлантический океан, место противостояния германского и английского флотов. Жизнь по строгому распорядку, учебные тревоги, воспоминания о семьях и любимых девушках, соленые мужские шуточки… Скоро всё это закончится. Потому что впереди — ад и никакой надежды на спасение…- - Страна: Германия
Продолжительность: 03:28:20
-- Файл
Кодек: MPEG4/ISO/AVC H.264
Формат: MKV
Качество: BDRip 720p
Видео: 1280x720 (16:9) | 59.940 fps | 8.4 Мбит/сек
Аудио: AC3 | 5.1 | 48 kHz | 640 kbps | 16 bit | Профессиональный (многоголосый, закадровый) (Позитив / Карусель) |

MedifInfo

Video
ID : 1
Format : AVC
Format/Info : Advanced Video Codec
Format profile : High@L4.1
Format settings, CABAC : Yes
Format settings, ReFrames : 4 frames
Codec ID : V_MPEG4/ISO/AVC
Duration : 3h 28mn
Bit rate : 8 300 Kbps
Width : 1 280 pixels
Height : 720 pixels
Display aspect ratio : 16:9
Frame rate mode : Constant
Frame rate : 59.880 fps
Original frame rate : 59.940 fps
Color space : YUV
Chroma subsampling : 4:2:0
Bit depth : 8 bits
Scan type : Progressive
Bits/(Pixel*Frame) : 0.150
Stream size : 11.8 GiB (91%)
Writing library : x264 core 146 r2538 121396c
Encoding settings : cabac=1 / ref=3 / deblock=1:0:0 / analyse=0x3:0x113 / me=umh / subme=9 / psy=1 / psy_rd=1.00:0.20 / mixed_ref=1 / me_range=32 / chroma_me=1 / trellis=2 / 8x8dct=1 / cqm=0 / deadzone=21,11 / fast_pskip=0 / chroma_qp_offset=-3 / threads=6 / lookahead_threads=1 / sliced_threads=0 / nr=0 / decimate=0 / interlaced=0 / bluray_compat=0 / constrained_intra=0 / bframes=16 / b_pyramid=2 / b_adapt=2 / b_bias=0 / direct=3 / weightb=1 / open_gop=0 / weightp=2 / keyint=600 / keyint_min=59 / scenecut=40 / intra_refresh=0 / rc_lookahead=40 / rc=2pass / mbtree=0 / bitrate=8300 / ratetol=1.0 / qcomp=0.60 / qpmin=0 / qpmax=69 / qpstep=4 / cplxblur=20.0 / qblur=0.5 / vbv_maxrate=14000 / vbv_bufsize=14000 / nal_hrd=none / filler=0 / ip_ratio=1.40 / pb_ratio=1.30 / aq=1:1.00
Language : English
Default : Yes
Forced : No
Audio
ID : 2
Format : AC-3
Format/Info : Audio Coding 3
Mode extension : CM (complete main)
Format settings, Endianness : Big
Codec ID : A_AC3
Duration : 3h 28mn
Bit rate mode : Constant
Bit rate : 640 Kbps
Channel(s) : 6 channels
Channel positions : Front: L C R, Side: L R, LFE
Sampling rate : 48.0 KHz
Compression mode : Lossy
Stream size : 954 MiB (7%)
Default : Yes
Forced : No
 
Показать сообщения:    

Текущее время: 08-Дек 09:04

Часовой пояс: UTC + 3


Вы не можете начинать темы
Вы не можете отвечать на сообщения
Вы не можете редактировать свои сообщения
Вы не можете удалять свои сообщения
Вы не можете голосовать в опросах
Вы не можете прикреплять файлы к сообщениям
Вы не можете скачивать файлы