[Цитировать]
Kryl

«Пятеро преступников. Опознание. Никаких совпадений»- Информация
Название: Подозрительные лица
Оригинальное название: The Usual Suspects
Год выхода: 1995
Жанр: Триллер, драма, криминал
Режиссер: Брайан Сингер
Сценарий: Кристофер МакКуорри
Продюсер: Майкл МакДоннел, Брайан Сингер, Ганс Брокманн
В ролях: Стивен Болдуин, Гэбриел Бирн, Бенисио Дель Торо, Кевин Поллак, Кевин Спейси, Чазз Пальминтери, Пит Постлетуэйт, Сьюзи Эймис, Джанкарло Эспозито, Дэн Хедайя
--Сюжет:
Обычно, если есть преступление, есть мотив. Обычно, если проводится опознание, по крайней мере есть один подозреваемый. Но это не было обычным преступлением… Пятеро преступников столкнулись в одном необычном месте и решили прокрутить одно дельце. Но кто-то более сильный и могущественный, кто-то, чье имя пугает всех преступников мира, хочет, чтобы они поработали на него… Это не было обычным преступлением, и они — не просто подозрительные лица…- Страна: США, Германия
Продолжительность: 01:46:05

Файл
Кодек: MPEG4/ISO/AVC H.264
Формат: MKV
Качество: BDRip 720p | 60 fps
Видео: 1280 x 544 (2.353) | 59.940 fps | 8.0 Мбит/сек
Аудио 1: AC3 | 5.1 | 48 kHz | 448 kbps | 16 bit | Профессиональный многоголосый - Киномания |
Аудио 2: AC3 | 2.0 | 48 kHz | 192 kbps | 16 bit | Профессиональный многоголосый - R5 |
Аудио 3: AC3 | 2.0 | 48 kHz | 192 kbps | 16 bit | Профессиональный многоголосый - РТР |
Аудио 4: AC3 | 5.1 | 48 kHz | 448 kbps | 16 bit | Авторский одноголосый - Юрий Живов |
Аудио 5: AC3 | 5.1 | 48 kHz | 448 kbps | 16 bit | ENG |
Субтитры: Русские, английские

MedifInfo

Видео
Идентификатор : 1
Формат : AVC
Формат/Информация : Advanced Video Codec
Профиль формата : High@L4.1
Параметр CABAC формата : Да
Параметр ReFrames формата : 3 кадра
Идентификатор кодека : V_MPEG4/ISO/AVC
Продолжительность : 1 ч. 46 м.
Вид битрейта : Переменный
Битрейт : 7765 Кбит/сек
Максимальный битрейт : 8000 Кбит/сек
Ширина : 1280 пикселей
Высота : 544 пикселя
Соотношение сторон : 2,35:1
Режим частоты кадров : Постоянный
Частота кадров : 59,880 кадров/сек
Частота кадров в оригинале : 59,940 кадров/сек
Стандарт вещания : PAL
Цветовое пространство : YUV
Субдискретизация насыщенности : 4:2:0
Битовая глубина : 8 бит
Тип развёртки : Прогрессивная
Бит/(Пиксели*Кадры) : 0.186
Размер потока : 5,75 Гбайт (82%)
Заголовок : Подозрительные лица / The Usual Suspects (1995) BDRip 720p | 60 fps
Язык : English
Default : Да
Forced : Нет
Основные цвета : BT.601 NTSC
Характеристики трансфера : BT.601
Коэффициенты матрицы : BT.601
colour_range : Limited
Аудио #1
Идентификатор : 2
Формат : AC-3
Формат/Информация : Audio Coding 3
Расширение режима : CM (complete main)
Параметр Endianness формата : Big
Идентификатор кодека : A_AC3
Продолжительность : 1 ч. 46 м.
Вид битрейта : Постоянный
Битрейт : 448 Кбит/сек
Каналы : 6 каналов
Расположение каналов : Front: L C R, Side: L R, LFE
Частота : 48,0 КГц
Битовая глубина : 16 бит
Метод сжатия : С потерями
Размер потока : 340 Мбайт (5%)
Заголовок : Киномания
Default : Да
Forced : Нет
Аудио #2
Идентификатор : 3
Формат : AC-3
Формат/Информация : Audio Coding 3
Расширение режима : CM (complete main)
Параметр Endianness формата : Big
Идентификатор кодека : A_AC3
Продолжительность : 1 ч. 46 м.
Вид битрейта : Постоянный
Битрейт : 192 Кбит/сек
Каналы : 2 канала
Расположение каналов : Front: L R
Частота : 48,0 КГц
Битовая глубина : 16 бит
Метод сжатия : С потерями
Размер потока : 146 Мбайт (2%)
Заголовок : R5
Default : Нет
Forced : Нет
Аудио #3
Идентификатор : 4
Формат : AC-3
Формат/Информация : Audio Coding 3
Расширение режима : CM (complete main)
Параметр Endianness формата : Big
Идентификатор кодека : A_AC3
Продолжительность : 1 ч. 46 м.
Вид битрейта : Постоянный
Битрейт : 192 Кбит/сек
Каналы : 2 канала
Расположение каналов : Front: L R
Частота : 48,0 КГц
Битовая глубина : 16 бит
Метод сжатия : С потерями
Размер потока : 146 Мбайт (2%)
Заголовок : РТР
Default : Нет
Forced : Нет
Аудио #4
Идентификатор : 5
Формат : AC-3
Формат/Информация : Audio Coding 3
Расширение режима : CM (complete main)
Параметр Endianness формата : Big
Идентификатор кодека : A_AC3
Продолжительность : 1 ч. 46 м.
Вид битрейта : Постоянный
Битрейт : 192 Кбит/сек
Каналы : 2 канала
Расположение каналов : Front: L R
Частота : 48,0 КГц
Битовая глубина : 16 бит
Метод сжатия : С потерями
Размер потока : 146 Мбайт (2%)
Заголовок : Ю. Живов
Default : Нет
Forced : Нет
Аудио #5
Идентификатор : 6
Формат : AC-3
Формат/Информация : Audio Coding 3
Расширение режима : CM (complete main)
Параметр Endianness формата : Big
Идентификатор кодека : A_AC3
Продолжительность : 1 ч. 46 м.
Вид битрейта : Постоянный
Битрейт : 448 Кбит/сек
Каналы : 6 каналов
Расположение каналов : Front: L C R, Side: L R, LFE
Частота : 48,0 КГц
Битовая глубина : 16 бит
Метод сжатия : С потерями
Размер потока : 340 Мбайт (5%)
Заголовок : eng
Default : Нет
Forced : Нет
Текст #1
Идентификатор : 7
Формат : UTF-8
Идентификатор кодека : S_TEXT/UTF8
Идентификатор кодека/Информация : UTF-8 Plain Text
Язык : Russian
Default : Нет
Forced : Нет
Текст #2
Идентификатор : 8
Формат : UTF-8
Идентификатор кодека : S_TEXT/UTF8
Идентификатор кодека/Информация : UTF-8 Plain Text
Язык : English
Default : Нет
Forced : Нет
Меню
00:00:00.000 : en:1. Main Title
00:02:17.010 : en:2. The Last Smoke
00:05:11.184 : en:3. Rounding Up...
00:08:01.731 : en:4. ...the Usual Suspects
00:12:05.057 : en:5. Five Guys in a Room
00:16:55.055 : en:6. Two Survivors
00:17:59.078 : en:7. Not an Interrogation
00:20:19.509 : en:8. Hungarian Burn Victim
00:21:55.063 : en:9. "I'm Smarter Than You"
00:26:02.476 : en:10. After the Lineup
00:28:26.413 : en:11. Convincing Keaton
00:31:19.460 : en:12. Ny's Finest Taxi Service
00:34:46.042 : en:13. The Fence in California
00:37:27.245 : en:14. "Dean Keaton Was Dead"
00:39:36.957 : en:15. He Saw the Devil
00:41:25.858 : en:16. "There Was a Lawyer..."
00:43:06.208 : en:17. Redfoot Makes an Offer
00:46:14.438 : en:18. Bad Day for a Heist
00:50:38.660 : en:19. "Who's Keyser Soze?"
00:51:55.320 : en:20. Kobayashi
00:57:00.708 : en:21. "a Gift From Mr. Soze"
00:59:12.256 : en:22. One Day in Turkey
01:04:43.212 : en:23. Finding Fenster
01:07:06.564 : en:24. No Threat to Kobayashi
01:13:07.716 : en:25. A Logistical Nightmare
01:14:17.035 : en:26. Ready, Set, Shoot
01:22:30.737 : en:27. A Rat Naming Names
01:23:36.803 : en:28. No-Dope Boat
01:28:39.939 : en:29. And Then There Was One
01:32:38.177 : en:30. "He Was My Friend!"
01:37:54.743 : en:31. The Writing on the Wall
01:42:37.151 : en:32. End Credits

Релиз подготовлен 60 - fps

 
Показать сообщения:    

Текущее время: 07-Дек 19:20

Часовой пояс: UTC + 3


Вы не можете начинать темы
Вы не можете отвечать на сообщения
Вы не можете редактировать свои сообщения
Вы не можете удалять свои сообщения
Вы не можете голосовать в опросах
Вы не можете прикреплять файлы к сообщениям
Вы не можете скачивать файлы