1. Longevity:
    4 years 8 months
    Posts:
    314
    Gender:
    Male
    Заказать фильмы, клипы или любое другое видео в качестве 60fps может каждый!!!
    Стоимость одного видео 50руб. !!!
    Пишите Талямба в личку, всё обсудите...
    Подарок / Echelon Conspiracy (2009) Blu-Ray Remux 1080p | 60 fps Информация
    Название: Подарок
    Оригинальное название: Echelon Conspiracy
    Год выхода: 2009
    Жанр: Боевик, триллер, криминал, детектив
    Режиссер: Грег Маркс
    В ролях: Шэйн Уэст, Эдвард Бёрнс, Винг Рэймс, Мартин Шин, Стивен Элдер, Сандра Де Суза, Грегори Дональдсон, Андреа Энрайт, Тамара Фельдман, Гоша Куценко
    Страна: США
    Продолжительность: 1 ч. 45 м. 17 с.
    ----- Сюжет:
    Что будет, если вы получите подарок, который выполнит все ваши желания. Подарок, от которого вы не сможете отказаться, но за который вам придется поплатиться. Обычному парню Максу Питерсону судьба преподносит именно такой подарок. Его жизнь круто меняется ... Но, как долго он сможет наслаждаться привалившим счастьем и, какой ценой оно ему обернется? ------ Файл
    Кодек: V_MPEG4/ISO/AVC
    Формат: MKV
    Качество: Blu-Ray Remux 1080p | 60 fps
    Видео: 1920 x 800 (2.400) | 59.940 fps | 35 Мбит/сек
    Аудио 1: AC3, 6 ch, 448 Кбит/с | Дублированный | RUS |
    Аудио 2: AC3, 6 ch, 448 Кбит/с | Дублированный | UKR |
    Аудио 3: Dolby TrueHD, 6 ch, 3778 Кбит/с | Оригинал | ENG |

    MedifInfo

    Общее
    Уникальный идентификатор : 190916426840954357116739062872815043746 (0x8FA12A94C9FFEB5EBFADF6F5694204A2)
    Полное имя : D:\Movie\Подарок (2009).mkv
    Формат : Matroska
    Версия формата : Version 2
    Размер файла : 29,1 Гбайт
    Продолжительность : 1 ч. 45 м.
    Режим общего битрейта : Переменный
    Общий поток : 39,6 Мбит/сек
    Название фильма : Подарок (2009)
    Дата кодирования : UTC 2021-10-09 20:23:10
    Программа кодирования : mkvmerge v5.8.0 ('No Sleep / Pillow') built on Sep 2 2012 15:37:04
    Библиотека кодирования : libebml v1.2.3 + libmatroska v1.3.0
    Attachments : Poster.jpg
    Видео
    Идентификатор : 1
    Формат : AVC
    Формат/Информация : Advanced Video Codec
    Профиль формата : [email protected]
    Параметр CABAC формата : Да
    Параметр ReFrames формата : 5 кадров
    Режим смешивания : Header stripping
    Идентификатор кодека : V_MPEG4/ISO/AVC
    Продолжительность : 1 ч. 45 м.
    Номинальный битрейт : 35,0 Мбит/сек
    Ширина : 1920 пикселей
    Высота : 800 пикселей
    Соотношение сторон : 2,40:1
    Режим частоты кадров : Постоянный
    Частота кадров : 59,940 (60000/1001) кадров/сек
    Цветовое пространство : YUV
    Субдискретизация насыщенности : 4:2:0
    Битовая глубина : 8 бит
    Тип развёртки : Прогрессивная
    Бит/(Пиксели*Кадры) : 0.380
    Библиотека кодирования : x264 core 146 r2538 121396c
    Настройки программы : cabac=1 / ref=5 / deblock=1:0:0 / analyse=0x3:0x113 / me=umh / subme=8 / psy=1 / psy_rd=1.00:0.25 / mixed_ref=1 / me_range=32 / chroma_me=1 / trellis=1 / 8x8dct=1 / cqm=0 / deadzone=6,6 / fast_pskip=1 / chroma_qp_offset=-4 / threads=12 / lookahead_threads=3 / sliced_threads=0 / nr=0 / decimate=0 / interlaced=0 / bluray_compat=0 / constrained_intra=0 / bframes=3 / b_pyramid=2 / b_adapt=2 / b_bias=0 / direct=3 / weightb=1 / open_gop=0 / weightp=2 / keyint=600 / keyint_min=60 / scenecut=40 / intra_refresh=0 / rc_lookahead=50 / rc=2pass / mbtree=1 / bitrate=35000 / ratetol=1.0 / qcomp=0.80 / qpmin=0 / qpmax=69 / qpstep=4 / cplxblur=20.0 / qblur=0.5 / vbv_maxrate=50000 / vbv_bufsize=50000 / nal_hrd=none / filler=0 / ip_ratio=1.10 / aq=1:0.50
    Язык : English
    Default : Да
    Forced : Нет
    Аудио #1
    Идентификатор : 2
    Формат : AC-3
    Формат/Информация : Audio Coding 3
    Расширение режима : CM (complete main)
    Параметр Endianness формата : Big
    Режим смешивания : Header stripping
    Идентификатор кодека : A_AC3
    Продолжительность : 1 ч. 45 м.
    Вид битрейта : Постоянный
    Битрейт : 448 Кбит/сек
    Каналы : 6 каналов
    Расположение каналов : Front: L C R, Side: L R, LFE
    Частота : 48,0 КГц
    Частота кадров : 31,250 кадров/сек (1536 spf)
    Битовая глубина : 16 бит
    Метод сжатия : С потерями
    Размер потока : 337 Мбайт (1%)
    Язык : Russian
    Default : Да
    Forced : Нет
    Аудио #2
    Идентификатор : 3
    Формат : AC-3
    Формат/Информация : Audio Coding 3
    Расширение режима : CM (complete main)
    Параметр Endianness формата : Big
    Режим смешивания : Header stripping
    Идентификатор кодека : A_AC3
    Продолжительность : 1 ч. 45 м.
    Вид битрейта : Постоянный
    Битрейт : 448 Кбит/сек
    Каналы : 6 каналов
    Расположение каналов : Front: L C R, Side: L R, LFE
    Частота : 48,0 КГц
    Частота кадров : 31,250 кадров/сек (1536 spf)
    Битовая глубина : 16 бит
    Метод сжатия : С потерями
    Размер потока : 337 Мбайт (1%)
    Язык : Ukrainian
    Default : Нет
    Forced : Нет
    Аудио #3
    Идентификатор : 4
    Формат : TrueHD
    Идентификатор кодека : A_TRUEHD
    Продолжительность : 1 ч. 45 м.
    Вид битрейта : Переменный
    Максимальный битрейт : 5517 Кбит/сек
    Каналы : 6 каналов
    Расположение каналов : Front: L C R, Side: L R, LFE
    Частота : 48,0 КГц
    Частота кадров : 1200,000 кадров/сек (40 spf)
    Метод сжатия : Без потерь
    Язык : English
    Default : Нет
    Forced : Нет
    Текст #1
    Идентификатор : 5
    Формат : PGS
    Режим смешивания : zlib
    Идентификатор кодека : S_HDMV/PGS
    Идентификатор кодека/Информация : Picture based subtitle format used on BDs/HD-DVDs
    Язык : English
    Default : Да
    Forced : Нет
    Текст #2
    Идентификатор : 6
    Формат : PGS
    Режим смешивания : zlib
    Идентификатор кодека : S_HDMV/PGS
    Идентификатор кодека/Информация : Picture based subtitle format used on BDs/HD-DVDs
    Язык : English
    Default : Нет
    Forced : Нет

    Release was prepared by 60-fps.org



You cannot post new topics in this forum
You cannot reply to topics in this forum
You cannot edit your posts in this forum
You cannot delete your posts in this forum
You cannot vote in polls in this forum
You cannot attach files in this forum
You cannot download files in this forum