План побега 2 / Escape Plan 2: Hades (2018) BDRip 720p | 60 fps Властелин колец: Трилогия / The Lord of the Rings: Trilogy (2001-2003) BDRip-AVC | Extended Cut | 60 fps Красный воробей / Red Sparrow (2018) BDRip 720p | 60 fps Ограбление в ураган / The Hurricane Heist (2018) BDRip 720p | 60 fps Жажда смерти / Death Wish (2018) BDRip 1080p | 60 fps Тихое место / A Quiet Place (2018) BDRip 720p | 60 fps Мир будущего / Future World (2018) BDRip 1080p | 60 fps Апгрейд / Upgrade (2018) BDRip 1080p | 60 fps
  1. Стаж:
    4 года 1 месяц
    Сообщений:
    2427
    Пол:
    Мужской
    «Everyone has secrets. Some of them are crimes» Информация
    Название: Под подозрением
    Оригинальное название: Under Suspicion
    Год выхода: 2000
    Жанр: детектив, триллер, драма, криминал
    Режиссер: Стивен Хопкинс
    Сценарий: Клод Миллер, Жан Херман
    Продюсер: Энн Мари Джиллен, Стивен Хопкинс
    В ролях: Джин Хэкмен, Морган Фриман, Томас Джейн, Моника Беллуччи, Нидия Каро, Мигель Анхел, Суарес Пабло, Канкуэро Изабель, Альгазе Жаклин, Дюпрей Луис Кабальеро и др.

    Сюжет:

    Столица Пуэрто-Рико искрится праздничными огнями, влиятельный адвокат Генри Хёрст спешит на благотворительный бал. Но сначала ему нужно ответить на вопросы инспектора полиции Виктора Бенезэ касательно трупа, найденного им в парке.
    Стареющий миллионер еще не знает, что этот вечер станет самым трагичным в его жизни, ибо в ближайшие часы ему предстоит выдержать жестокую интеллектуальную дуэль с опытным детективом, который обвинит его в бесчеловечных убийствах и изнасилованиях девочек из трущоб.
    Все факты свидетельствуют против адвоката, но что-то настораживает проницательного сыщика, и вскоре он понимает, что узнает истину, только если заглянет в самые мрачные уголки души блистательного Генри Хёрста.

    Страна: Франция, США
    Продолжительность: 01:50:58

    Файл
    Кодек: H.264
    Формат: MKV
    Качество: BDRip 720p | 60 fps
    Видео: 1280 x 720 (1.778) | 59.940 fps | 11.0 Мбит/сек
    Аудио 01: AC3 | 5.1 | 48 kHz | 448 kbps | 16 bit | Профессиональный многоголосый - Неоклассика |
    Аудио 02: AC3 | 2.0 | 48 kHz | 192 kbps | 16 bit | Профессиональный многоголосый - 1 канал |
    Аудио 03: AC3 | 2.0 | 48 kHz | 192 kbps | 16 bit | Авторский - Юрий Живов |
    Аудио 04: AC3 | 2.0 | 48 kHz | 192 kbps | 16 bit | Авторский - Сергей Кузнецов |
    Аудио 05: AC3 | 5.1 | 48 kHz | 448 kbps | 16 bit | english |
    Субтитры: Русские, английские

    MedifInfo

    Видео
    Идентификатор : 1
    Формат : AVC
    Формат/Информация : Advanced Video Codec
    Профиль формата : High@L4.1
    Настройки формата : CABAC / 4 Ref Frames
    Параметр CABAC формата : Да
    Параметр RefFrames формата : 4 кадра
    Режим смешивания : Header stripping
    Идентификатор кодека : V_MPEG4/ISO/AVC
    Продолжительность : 1 ч. 50 м.
    Вид битрейта : Переменный
    Битрейт : 10,7 Мбит/сек
    Максимальный битрейт : 11,0 Мбит/сек
    Ширина : 1280 пикселей
    Высота : 720 пикселей
    Соотношение сторон : 16:9
    Режим частоты кадров : Постоянный
    Частота кадров : 59,940 (60000/1001) кадров/сек
    Стандарт вещания : NTSC
    Цветовое пространство : YUV
    Субдискретизация насыщенности : 4:2:0
    Битовая глубина : 8 бит
    Тип развёртки : Прогрессивная
    Бит/(Пиксели*Кадры) : 0.194
    Размер потока : 8,31 Гбайт (86%)
    Заголовок : www.60-fps.org
    Язык : English
    Default : Да
    Forced : Нет
    Цветовой диапазон : Limited
    Основные цвета : BT.709
    Характеристики трансфера : BT.709
    Коэффициенты матрицы : BT.709
    Аудио #1
    Идентификатор : 2
    Формат : AC-3
    Формат/Информация : Audio Coding 3
    Режим смешивания : Header stripping
    Идентификатор кодека : A_AC3
    Продолжительность : 1 ч. 50 м.
    Вид битрейта : Постоянный
    Битрейт : 448 Кбит/сек
    Каналы : 5 каналов
    Расположение каналов : Front: L C R, Side: L R
    Частота : 48,0 КГц
    Частота кадров : 31,250 кадров/сек (1536 SPF)
    Битовая глубина : 16 бит
    Метод сжатия : С потерями
    Размер потока : 356 Мбайт (4%)
    Заголовок : Профессиональный многоголосый - Неоклассика
    Язык : Russian
    ServiceKind/String : Complete Main
    Default : Да
    Forced : Нет
    Аудио #2
    Идентификатор : 3
    Формат : AC-3
    Формат/Информация : Audio Coding 3
    Режим смешивания : Header stripping
    Идентификатор кодека : A_AC3
    Продолжительность : 1 ч. 50 м.
    Вид битрейта : Постоянный
    Битрейт : 192 Кбит/сек
    Каналы : 2 канала
    Расположение каналов : Front: L R
    Частота : 48,0 КГц
    Частота кадров : 31,250 кадров/сек (1536 SPF)
    Битовая глубина : 16 бит
    Метод сжатия : С потерями
    Размер потока : 152 Мбайт (2%)
    Заголовок : Профессиональный многоголосый - 1 канал
    Язык : Russian
    ServiceKind/String : Complete Main
    Default : Нет
    Forced : Нет
    Аудио #3
    Идентификатор : 4
    Формат : AC-3
    Формат/Информация : Audio Coding 3
    Режим смешивания : Header stripping
    Идентификатор кодека : A_AC3
    Продолжительность : 1 ч. 50 м.
    Вид битрейта : Постоянный
    Битрейт : 192 Кбит/сек
    Каналы : 2 канала
    Расположение каналов : Front: L R
    Частота : 48,0 КГц
    Частота кадров : 31,250 кадров/сек (1536 SPF)
    Битовая глубина : 16 бит
    Метод сжатия : С потерями
    Размер потока : 152 Мбайт (2%)
    Заголовок : Авторский - Юрий Живов
    Язык : Russian
    ServiceKind/String : Complete Main
    Default : Нет
    Forced : Нет
    Аудио #4
    Идентификатор : 5
    Формат : AC-3
    Формат/Информация : Audio Coding 3
    Режим смешивания : Header stripping
    Идентификатор кодека : A_AC3
    Продолжительность : 1 ч. 50 м.
    Вид битрейта : Постоянный
    Битрейт : 192 Кбит/сек
    Каналы : 2 канала
    Расположение каналов : Front: L R
    Частота : 48,0 КГц
    Частота кадров : 31,250 кадров/сек (1536 SPF)
    Битовая глубина : 16 бит
    Метод сжатия : С потерями
    Размер потока : 152 Мбайт (2%)
    Заголовок : Авторский - Сергей Кузнецов
    Язык : Russian
    ServiceKind/String : Complete Main
    Default : Нет
    Forced : Нет
    Аудио #5
    Идентификатор : 6
    Формат : AC-3
    Формат/Информация : Audio Coding 3
    Режим смешивания : Header stripping
    Идентификатор кодека : A_AC3
    Продолжительность : 1 ч. 50 м.
    Вид битрейта : Постоянный
    Битрейт : 448 Кбит/сек
    Каналы : 6 каналов
    Расположение каналов : Front: L C R, Side: L R, LFE
    Частота : 48,0 КГц
    Частота кадров : 31,250 кадров/сек (1536 SPF)
    Битовая глубина : 16 бит
    Метод сжатия : С потерями
    Размер потока : 356 Мбайт (4%)
    Заголовок : english
    Язык : English
    ServiceKind/String : Complete Main
    Default : Нет
    Forced : Нет
    Текст #1
    Идентификатор : 7
    Формат : UTF-8
    Идентификатор кодека : S_TEXT/UTF8
    Идентификатор кодека/Информация : UTF-8 Plain Text
    Язык : Russian
    Default : Нет
    Forced : Нет
    Текст #2
    Идентификатор : 8
    Формат : UTF-8
    Идентификатор кодека : S_TEXT/UTF8
    Идентификатор кодека/Информация : UTF-8 Plain Text
    Язык : English
    Default : Нет
    Forced : Нет
    Меню
    00:00:00.000 : en:Chapter 01
    00:10:36.387 : en:Chapter 02
    00:19:18.075 : en:Chapter 03
    00:29:18.049 : en:Chapter 04
    00:39:18.358 : en:Chapter 05
    00:50:46.962 : en:Chapter 06
    00:59:01.331 : en:Chapter 07
    01:09:16.988 : en:Chapter 08
    01:18:42.761 : en:Chapter 09
    01:28:36.563 : en:Chapter 10
    01:37:02.276 : en:Chapter 11
    01:46:34.014 : en:Chapter 12

    Релиз подготовлен 60 - fps



Вы не можете начинать темы
Вы не можете отвечать на сообщения
Вы не можете редактировать свои сообщения
Вы не можете удалять свои сообщения
Вы не можете голосовать в опросах
Вы не можете прикреплять файлы к сообщениям
Вы не можете скачивать файлы