[Цитировать]
mimok

Побеждая время / Hours (2013) BDRip 720p | 60fps | XviD«Every second counts»- Информация о фильме
Название: Побеждая время / Считанные часы
Оригинальное название: Hours
Год выхода: 2013
Жанр: Триллер, драма
Режиссер: Эрик Хайссерер
В ролях: Пол Уокер, Дженезис Родригез, Нэнси Нейв, Шэйн Якобсен, Наталия Ярожик, Тиджей Хассан, Лена Кларк, Кеша Баллард, Йоханс Майлс, Джудд Лорманд...
Описание фильма:
Новый Орлеан. Август 2005-го. Смертоносная «Катрина» сметает все на своем пути. Отец изо всех сил пытается спасти свою дочь. Он понимает, что справиться со стихией, остановить беспощадный ураган не в его силах. На спасение дочери остаются считаные часы…
Страна: США
Студия: Hours Capital, Palm-Star Entertainment, Safran Company
Продолжительность: 01:36:59
Перевод: Профессиональный (многоголосый закадровый) [Лицензия R5]
Субтитры: Отсутствуют

Дата мировой премьеры: 10 марта 2013
Дата выхода DVD релиза: 26 августа 2014, «Парадиз / Активижен»
Файл
Формат: AVI
Кодек: MPEG-4 Visual/XviD
Качество: BDRip 720p
Видео: ~ 3 758 Кбит/сек, 1280 x 536, 59.940 кадров/сек
Аудио: AC3 5.1, 48.0 KHz, 384 Кбит/сек - Русский

MediaInfo

Общее
Полное имя : D:\Торренты\Hours 60fps.avi
Формат : AVI
Формат/Информация : Audio Video Interleave
Профиль формата : OpenDML
Размер файла : 2,82 Гбайт
Продолжительность : 1 ч. 36 м.
Общий поток : 4169 Кбит/сек
Программа кодирования : VirtualDubModRus 1.5.10.2 (build 2542/release)
Библиотека кодирования : VirtualDubMod build 2542/release
Видео
Идентификатор : 0
Формат : MPEG-4 Visual
Профиль формата : Advanced Simple@L5
Параметр BVOP формата : 2
Параметр QPel формата : Нет
Параметр GMC формата : Без точки перехода
Параметр матрицы формата : Default (H.263)
Идентификатор кодека : XVID
Идентификатор кодека/Подсказка : XviD
Продолжительность : 1 ч. 36 м.
Битрейт : 3758 Кбит/сек
Ширина : 1280 пикселей
Высота : 536 пикселей
Соотношение сторон : 2,40:1
Частота кадров : 59,940 кадров/сек
Цветовое пространство : YUV
Субдискретизация насыщенности : 4:2:0
Битовая глубина : 8 бит
Тип развёртки : Прогрессивная
Метод сжатия : С потерями
Бит/(Пиксели*Кадры) : 0.091
Размер потока : 2,55 Гбайт (90%)
Библиотека кодирования : XviD 1.2.1 (UTC 2008-12-04)
Аудио
Идентификатор : 1
Формат : AC-3
Формат/Информация : Audio Coding 3
Расширение режима : CM (complete main)
Параметр Endianness формата : Big
Идентификатор кодека : 2000
Продолжительность : 1 ч. 36 м.
Вид битрейта : Постоянный
Битрейт : 384 Кбит/сек
Каналы : 6 каналов
Расположение каналов : Front: L C R, Side: L R, LFE
Частота : 48,0 КГц
Битовая глубина : 16 бит
Метод сжатия : С потерями
Размер потока : 266 Мбайт (9%)
Выравнивание : Разделение по промежуткам
Продолжительность промежутка : 17 мс. (1,00 видеокадр)
Время предзагрузки промежутка : 500 мс.

Скринлист

Скриншоты:
Автор рипа - LEGi0N

[Цитировать]
Kryl

XviD ?

[Цитировать]
mimok

ну да, а что?

[Цитировать]
VinceRage

действительно, XviD? :D
 
Показать сообщения:    

Текущее время: 03-Дек 16:40

Часовой пояс: UTC + 3


Вы не можете начинать темы
Вы не можете отвечать на сообщения
Вы не можете редактировать свои сообщения
Вы не можете удалять свои сообщения
Вы не можете голосовать в опросах
Вы не можете прикреплять файлы к сообщениям
Вы не можете скачивать файлы