[Цитировать]
Kryl

--Побег из курятника / Chicken Run (2000) BDRip 1080p | 60 fps --Информация о фильме
Название: Побег из курятника
Оригинальное название:Chicken Run
Год выхода: 2000
Страна: Великобритания, США
Жанр: мультфильм, комедия, семейный
Режиссер: Питер Лорд / Peter Lord, Ник Парк / Nick Park
Продолжительность: 01:24:29
Перевод: Дубляж, Многоголосый закадровый
Субтитры: русские (Полные), английские (Полные)
В ролях:Фил Дэниелс, Линн Фергюсон, Мэл Гибсон, Тони Хейгарт, Джейн Хоррокс, Миранда Ричардсон, Джулия Савалия, Тимоти Сполл, Имелда Стонтон, Бенжамин Уитроу
--О фильме:
Курочкам на ферме миссис Туиди приходится не легко. Для каждой из этих несчастных птиц любое, даже самое погожее утро, может стать последним: в мгновение ока они могут угодить в суп или стать начинкой для пирожка.
Безропотные домашние птички живут в постоянном страхе в ужасных курятниках, напоминающих бараки концлагеря. Все попытки вырваться из страшной фермы на волю оканчиваются провалом. Но однажды на ферме объявился веселый американский петух Рокки...
-
Файл
Кодек: MPEG4/ISO/AVC/H.264
Формат: MKV
Качество: BDRip 1080p
Видео: 1920x1080, 13014 kbps, 59,997 fps
Аудио 1: AC-3, русский/ 2.0/ 48 kHz/ 192 kbps/ AC3/ |Дубляж|
Аудио 2: AC-3, 5.1/ 48 kHz/ 448 kbps/ AC3 Многоголосый закадровый, Студия Премьер видео
Аудио 3: AC-3, английский/ 5.1/ 48 kHz/ 640 kbps
Чаптеры (Главы): Есть-

MI

General
Unique ID : 214123018084389749249857572915695478192 (0xA11697DDFECC8906B687BF68606A65B0)
Название : A:1080p 60fpsПобег из курятника 1080p 60fps.mkv
Формат : Matroska
Формат version : Version 4 / Version 2
Размер файла : 8.61 GiB
Длительность : 1h 24mn
Общий Битрейт : 14.6 Mbps
Encoded date : UTC 2014-08-07 10:25:31
Создано приложением : mkvmerge v6.9.1 ('Blue Panther') 64bit built on Apr 18 2014 18:23:38
Writing library : libebml v1.3.0 + libmatroska v1.4.1
Attachment : Yes / Yes
Video
ID : 1
Формат : AVC
Формат/Info : Advanced Video Кодек
Формат profile : High@L4.1
Формат настройки, CABAC : Yes
Формат настройки, ReFrames : 4 frames
Кодек ID : V_MPEG4/ISO/AVC
Длительность : 1h 24mn
Битрейт : 13.0 Mbps
Width : 1 920 пикселей
Высота : 1 080 пикселей
Соотношение кадра : 16:9
Частота кадров : 59.997 fps
Цветопередача : YUV
Chroma subsampling : 4:2:0
Разрядность : 8 bits
Тип сканирования : Progressive
Bits/(Pixel*Frame) : 0.105
Размер потока : 7.68 GiB (89%)
Writing library : x264 core 130 r2273 b3065e6
Encoding настройки : cabac=1 / ref=4 / deblock=1:-1:-1 / analyse=0x3:0 / me=umh / subme=9 / psy=1 / psy_rd=1.00:0.10 / mixed_ref=1 / me_range=42 / chroma_me=0 / trellis=2 / 8x8dct=1 / cqm=0 / deadzone=21,11 / fast_pskip=0 / chroma_qp_offset=-3 / threads=12 / lookahead_threads=1 / sliced_threads=0 / nr=0 / decimate=0 / interlaced=0 / bluray_compat=0 / constrained_intra=0 / bframes=5 / b_pyramid=2 / b_adapt=2 / b_bias=0 / direct=1 / weightb=1 / open_gop=0 / weightp=2 / keyint=594 / keyint_min=59 / scenecut=40 / intra_refresh=0 / rc=crf / mbtree=0 / crf=15.0 / qcomp=0.60 / qpmin=0 / qpmax=69 / qpstep=4 / ip_ratio=1.40 / pb_ratio=1.30 / aq=0
Язык : English
Default : Yes
Forced : No
Audio #1
ID : 2
Формат : AC-3
Формат/Info : Audio Coding 3
Расширение режима : CM (complete main)
Кодек ID : A_AC3
Длительность : 1h 24mn
Битрейт mode : Constant
Битрейт : 192 Kbps
Каналы(s) : 2 канала
Каналы positions : Front: L R
Частота : 48.0 KHz
Разрядность : 16 bits
Режим сжатия : Lossy
Размер потока : 116 MiB (1%)
Title : Дубляж ОРТ
Язык : Russian
Default : Yes
Forced : No
Audio #2
ID : 3
Формат : AC-3
Формат/Info : Audio Coding 3
Расширение режима : CM (complete main)
Кодек ID : A_AC3
Длительность : 1h 24mn
Битрейт mode : Constant
Битрейт : 448 Kbps
Каналы(s) : 6 каналов
Каналы positions : Front: L C R, Side: L R, LFE
Частота : 48.0 KHz
Разрядность : 16 bits
Режим сжатия : Lossy
Размер потока : 271 MiB (3%)
Title : MVO Премьер
Язык : Russian
Default : No
Forced : No
Audio #3
ID : 6
Формат : AC-3
Формат/Info : Audio Coding 3
Расширение режима : CM (complete main)
Кодек ID : A_AC3
Длительность : 1h 24mn
Битрейт mode : Constant
Битрейт : 640 Kbps
Каналы(s) : 6 каналов
Каналы positions : Front: L C R, Side: L R, LFE
Частота : 48.0 KHz
Разрядность : 16 bits
Режим сжатия : Lossy
Размер потока : 387 MiB (4%)
Title : Original
Язык : English
Default : No
Forced : No
Text #1
ID : 4
Формат : UTF-8
Кодек ID : S_TEXT/UTF8
Кодек ID/Info : UTF-8 Plain Text
Title : Полные
Язык : Russian
Default : No
Forced : No
Text #2
ID : 5
Формат : UTF-8
Кодек ID : S_TEXT/UTF8
Кодек ID/Info : UTF-8 Plain Text
Title : Полные
Язык : English
Default : No
Forced : No
Menu
00:00:00.000 : en:Chapter 1
00:07:30.874 : en:Chapter 2
00:13:03.499 : en:Chapter 3
00:18:27.083 : en:Chapter 4
00:26:25.916 : en:Chapter 5
00:33:35.750 : en:Chapter 6
00:40:30.208 : en:Chapter 7
00:47:52.416 : en:Chapter 8
00:56:15.583 : en:Chapter 9
01:06:39.958 : en:Chapter 10
01:16:51.416 : en:Chapter 11
01:19:31.750 : en:Chapter 12
-
 
Показать сообщения:    

Текущее время: 06-Дек 15:09

Часовой пояс: UTC + 3


Вы не можете начинать темы
Вы не можете отвечать на сообщения
Вы не можете редактировать свои сообщения
Вы не можете удалять свои сообщения
Вы не можете голосовать в опросах
Вы не можете прикреплять файлы к сообщениям
Вы не можете скачивать файлы