[Цитировать]
Kryl

«It was never meant to be opened»- Информация
Название: По ту сторону двери
Оригинальное название: The Other Side of the Door
Год выхода: 2016
Жанр: Триллер, Ужасы
Режиссер: Йоханнес Робертс
Сценарий: Йоханнес Робертс, Эрнест Риера
Продюсер: Рори Аиткен, Александр Ажа, Бен Паг
В ролях: Сара Уэйн Кэллис, Джереми Систо, София Росински, Хавьер Ботет, Джакс Малкольм, Сучитра Пиллай-Малик
--Сюжет:
Идиллическая жизнь молодой семьи за границей трагически прерывается гибелью маленького сына. Безутешная мать узнает о существовании древнего ритуала, который позволяет на время вернуть умерших, чтобы с ними попрощаться. Девушка отправляется в заброшенный храм, где двери служат порталом между мирами живых и мертвых, но пренебрегает предупреждением не открывать эти таинственные врата. И теперь никто не знает, что станет с нашим миром после нарушения баланса жизни и смерти.- Страна: Индия, Великобритания
Продолжительность: 01:36:01

Файл
Кодек: MPEG4/ISO/AVC H.264
Формат: MKV
Качество: WEBRip 720p | 60 fps
Видео: 1280 x 534 (2.397) | 59.940 fps | 5.0 Мбит/сек
Аудио 1: AC3 | 5.1 | 48 kHz | 384 kbps | 16 bit | Дубляж (iTunes) |
Аудио 2: AC3 | 2.0 | 48 kHz | 192 kbps | 16 bit | Украинский |
Аудио 3: AC3 | 2.0 | 48 kHz | 192 kbps | 16 bit | Eng |
Субтитры: Русский (Forced, Full), Украинский (Full), Английский (Full)

MedifInfo

Видео
Идентификатор : 1
Формат : AVC
Формат/Информация : Advanced Video Codec
Профиль формата : High@L4.1
Параметр CABAC формата : Да
Параметр ReFrames формата : 3 кадра
Идентификатор кодека : V_MPEG4/ISO/AVC
Продолжительность : 1 ч. 36 м.
Вид битрейта : Переменный
Битрейт : 4855 Кбит/сек
Максимальный битрейт : 5000 Кбит/сек
Ширина : 1280 пикселей
Высота : 534 пикселя
Соотношение сторон : 2,40:1
Режим частоты кадров : Постоянный
Частота кадров : 59,880 кадров/сек
Частота кадров в оригинале : 59,940 кадров/сек
Стандарт вещания : PAL
Цветовое пространство : YUV
Субдискретизация насыщенности : 4:2:0
Битовая глубина : 8 бит
Тип развёртки : Прогрессивная
Бит/(Пиксели*Кадры) : 0.119
Размер потока : 3,26 Гбайт (85%)
Заголовок : www.60-fps.org
Язык : English
Default : Да
Forced : Нет
Основные цвета : BT.601 NTSC
Характеристики трансфера : BT.601
Коэффициенты матрицы : BT.601
colour_range : Limited
Аудио #1
Идентификатор : 2
Формат : AC-3
Формат/Информация : Audio Coding 3
Расширение режима : CM (complete main)
Параметр Endianness формата : Big
Идентификатор кодека : A_AC3
Продолжительность : 1 ч. 36 м.
Вид битрейта : Постоянный
Битрейт : 384 Кбит/сек
Каналы : 6 каналов
Расположение каналов : Front: L C R, Side: L R, LFE
Частота : 48,0 КГц
Битовая глубина : 16 бит
Метод сжатия : С потерями
Размер потока : 264 Мбайт (7%)
Заголовок : Дубляж iTunes
Язык : Russian
Default : Да
Forced : Да
Аудио #2
Идентификатор : 3
Формат : AC-3
Формат/Информация : Audio Coding 3
Расширение режима : CM (complete main)
Параметр Endianness формата : Big
Идентификатор кодека : A_AC3
Продолжительность : 1 ч. 36 м.
Вид битрейта : Постоянный
Битрейт : 192 Кбит/сек
Каналы : 2 канала
Расположение каналов : Front: L R
Частота : 48,0 КГц
Битовая глубина : 16 бит
Метод сжатия : С потерями
Размер потока : 132 Мбайт (3%)
Заголовок : Украинский iTunes
Язык : Ukrainian
Default : Нет
Forced : Нет
Аудио #3
Идентификатор : 4
Формат : AC-3
Формат/Информация : Audio Coding 3
Расширение режима : CM (complete main)
Параметр Endianness формата : Big
Идентификатор кодека : A_AC3
Продолжительность : 1 ч. 36 м.
Вид битрейта : Постоянный
Битрейт : 192 Кбит/сек
Каналы : 2 канала
Расположение каналов : Front: L R
Частота : 48,0 КГц
Битовая глубина : 16 бит
Метод сжатия : С потерями
Размер потока : 132 Мбайт (3%)
Заголовок : Original
Язык : English
Default : Нет
Forced : Нет
Текст #1
Идентификатор : 5
Формат : UTF-8
Идентификатор кодека : S_TEXT/UTF8
Идентификатор кодека/Информация : UTF-8 Plain Text
Заголовок : Forced
Язык : Russian
Default : Да
Forced : Да
Текст #2
Идентификатор : 6
Формат : UTF-8
Идентификатор кодека : S_TEXT/UTF8
Идентификатор кодека/Информация : UTF-8 Plain Text
Заголовок : Full
Язык : Russian
Default : Нет
Forced : Нет
Текст #3
Идентификатор : 7
Формат : UTF-8
Идентификатор кодека : S_TEXT/UTF8
Идентификатор кодека/Информация : UTF-8 Plain Text
Заголовок : Full
Язык : Ukrainian
Default : Нет
Forced : Нет
Текст #4
Идентификатор : 8
Формат : UTF-8
Идентификатор кодека : S_TEXT/UTF8
Идентификатор кодека/Информация : UTF-8 Plain Text
Заголовок : Full
Язык : English
Default : Нет
Forced : Нет
Меню
00:00:00.000 : en:1
00:04:07.122 : en:2
00:09:23.521 : en:3
00:11:45.955 : en:4
00:14:41.338 : en:5
00:18:52.672 : en:6
00:22:57.083 : en:7
00:24:35.681 : en:8
00:27:47.080 : en:9
00:32:29.821 : en:10
00:36:01.574 : en:11
00:40:49.987 : en:12
00:45:00.862 : en:13
00:49:01.227 : en:14
00:54:37.354 : en:15
00:59:41.825 : en:16
01:04:48.131 : en:17
01:07:49.812 : en:18
01:12:16.537 : en:19
01:17:08.078 : en:20
01:22:20.181 : en:21
01:25:11.852 : en:22
01:29:05.460 : en:23
01:31:18.301 : en:24

Релиз подготовлен 60 - fps

[60-fps.org].t2076.torrent
Торрент: Зарегистрирован [ 2016-06-06 20:38 ] · C83630C1E125369ABB86DADCABB6197869FC7A12

Скачать .torrent

Скачать

20 KB

Статус: проверено
Скачан: 34 раз
Поблагодарили:
Размер: 3,85 GB
 

[Цитировать]
cesar30000

Улыбаюсь
 
Показать сообщения:    

Текущее время: 22-Фев 04:39

Часовой пояс: UTC + 3


Вы не можете начинать темы
Вы не можете отвечать на сообщения
Вы не можете редактировать свои сообщения
Вы не можете удалять свои сообщения
Вы не можете голосовать в опросах
Вы не можете прикреплять файлы к сообщениям
Вы можете скачивать файлы