Агент Ева / Ava (2020) BDRip 1080p | 60 fps Пятый элемент / The Fifth Element (1997) BDRip 1080p | 60 fps Властелин колец: Трилогия / The Lord of the Rings: Trilogy (2001-2003) BDRip-AVC | Extended Cut | 60 fps Форпост / The Outpost (2020) BDRip 1080p | 60 fps Поезд смерти / D-Railed (2018) BDRip 1080p | 60 fps Охота / The Hunt (2020) BDRip 1080p | 60 fps Вивариум / Vivarium (2019) BDRip 720p | 60 fps Ультрафиолет / Ultraviolet (2006) BDRip 1080p | 60 fps
  1. Longevity:
    6 years 4 months
    Posts:
    2414
    Gender:
    Male
    «Based on the incredible true story»- Информация
    Название: По соображениям совести
    Оригинальное название: Hacksaw Ridge
    Год выхода: 2016
    Жанр: Драма, военный, история
    Режиссер: Мэл Гибсон
    Сценарий: Роберт Шенккан, Эндрю Найт
    Продюсер: Майкл Бэссик, Лоуренс Бендер, Терри Бенедикт
    В ролях: Эндрю Гарфилд, Ричард Пирос, Джейкоб Уорнер, Мило Гибсон, Дарси Брайс, Роман Геррьеро, Джеймс Лагтон, Касия Стелмах, Хьюго Уивинг, Рэйчел Гриффитс, Сэм Уортингтон, Тереза Палмер, Винс Вон
    --Сюжет:
    Медик Американской армии времён Второй Мировой войны Дезмонд Досс, который служил во время битвы за Окинаву, отказывается убивать людей и становится первым идейным уклонистом в американской истории, удостоенным Медали Почёта.- Страна: Австралия, США
    Продолжительность: 02:19:19

    Файл
    Кодек: MPEG4/ISO/AVC/H.264
    Формат: MKV
    Качество: BDRip 1080p | 60 fps
    Видео: 1920 x 800 (2.400) | 59.940 fps | 25.0 Мбит/сек
    Аудио 1: AC3 | 5.1 | 48 kHz | 640 kbps | 16 bit | Любительский многоголосый - Paradox&Omskbird |
    Аудио 2: AC3 | 5.1 | 48 kHz | 640 kbps | 16 bit | ENG |
    Субтитры: Русские, eng

    MedifInfo

    Видео
    Идентификатор : 1
    Формат : AVC
    Формат/Информация : Advanced Video Codec
    Профиль формата : [email protected]
    Параметр CABAC формата : Да
    Параметр ReFrames формата : 3 кадра
    Параметр GOP формата : M=3, N=72
    Идентификатор кодека : V_MPEG4/ISO/AVC
    Продолжительность : 2 ч. 19 м.
    Вид битрейта : Переменный
    Битрейт : 23,9 Мбит/сек
    Максимальный битрейт : 25,0 Мбит/сек
    Ширина : 1920 пикселей
    Высота : 800 пикселей
    Соотношение сторон : 2,40:1
    Режим частоты кадров : Постоянный
    Частота кадров : 59,880 кадров/сек
    Частота кадров в оригинале : 59,940 кадров/сек
    Стандарт вещания : PAL
    Цветовое пространство : YUV
    Субдискретизация насыщенности : 4:2:0
    Битовая глубина : 8 бит
    Тип развёртки : Прогрессивная
    Бит/(Пиксели*Кадры) : 0.260
    Размер потока : 23,3 Гбайт (93%)
    Заголовок : www.60-fps.org
    Язык : English
    Default : Да
    Forced : Нет
    Основные цвета : BT.709
    Характеристики трансфера : BT.709
    Коэффициенты матрицы : BT.709
    colour_range : Limited
    Аудио #1
    Идентификатор : 2
    Формат : AC-3
    Формат/Информация : Audio Coding 3
    Расширение режима : CM (complete main)
    Параметр Endianness формата : Big
    Идентификатор кодека : A_AC3
    Продолжительность : 2 ч. 19 м.
    Вид битрейта : Постоянный
    Битрейт : 640 Кбит/сек
    Каналы : 6 каналов
    Расположение каналов : Front: L C R, Side: L R, LFE
    Частота : 48,0 КГц
    Битовая глубина : 16 бит
    Метод сжатия : С потерями
    Размер потока : 638 Мбайт (2%)
    Заголовок : Любительский многоголосый - Paradox&Omskbird
    Язык : Russian
    Default : Да
    Forced : Нет
    Аудио #2
    Идентификатор : 3
    Формат : AC-3
    Формат/Информация : Audio Coding 3
    Расширение режима : CM (complete main)
    Параметр Endianness формата : Big
    Идентификатор кодека : A_AC3
    Продолжительность : 2 ч. 19 м.
    Вид битрейта : Постоянный
    Битрейт : 640 Кбит/сек
    Каналы : 6 каналов
    Расположение каналов : Front: L C R, Side: L R, LFE
    Частота : 48,0 КГц
    Битовая глубина : 16 бит
    Метод сжатия : С потерями
    Размер потока : 638 Мбайт (2%)
    Заголовок : Original
    Язык : English
    Default : Нет
    Forced : Нет
    Текст #1
    Идентификатор : 4
    Формат : UTF-8
    Идентификатор кодека : S_TEXT/UTF8
    Идентификатор кодека/Информация : UTF-8 Plain Text
    Язык : Russian
    Default : Нет
    Forced : Нет
    Текст #2
    Идентификатор : 5
    Формат : UTF-8
    Идентификатор кодека : S_TEXT/UTF8
    Идентификатор кодека/Информация : UTF-8 Plain Text
    Язык : English
    Default : Нет
    Forced : Нет
    Меню
    00:00:00.000 : en:00:00:00.000
    00:09:18.766 : en:00:09:18.766
    00:18:41.996 : en:00:18:41.996
    00:26:34.510 : en:00:26:34.510
    00:33:00.562 : en:00:33:00.562
    00:40:04.152 : en:00:40:04.152
    00:50:07.212 : en:00:50:07.212
    00:57:01.543 : en:00:57:01.543
    01:04:21.649 : en:01:04:21.649
    01:17:50.207 : en:01:17:50.207
    01:23:58.700 : en:01:23:58.700
    01:31:21.726 : en:01:31:21.726
    01:39:02.812 : en:01:39:02.812
    01:46:07.569 : en:01:46:07.569
    01:59:48.306 : en:01:59:48.306
    02:07:13.292 : en:02:07:13.292

    Release was prepared by 60-fps.org



    Last edited by Kryl on 2017-05-03 07:08; edited 1 time in total
  2. Longevity:
    5 years 6 months
    Posts:
    149
    Gender:
    Male
    Огромное Спасибо Овации Овации Овации
    Фильм действительно стоит внимания!
    23-Feb-2017 16:51 (after 11 days)
  3. Longevity:
    4 years 4 months
    Posts:
    110
    Gender:
    Male
    А в 720р будет?
    23-Feb-2017 18:51 (after 1 hour 59 minutes)
  4. Longevity:
    6 years 4 months
    Posts:
    2414
    Gender:
    Male
    7443А в 720р будет?
    от меня не будет .
    23-Feb-2017 18:56 (after 4 minutes)
  5. Longevity:
    4 years 5 months
    Posts:
    2
    Gender:
    Unknown
    Дублированный перевод будет???
    02-Mar-2017 12:11 (after 6 days)
  6. Longevity:
    5 years 1 month
    Posts:
    27
    Gender:
    Male
    ребят,обалденнейший фильм! в моем списке 2-й после Апокалипсиса(Мела Гибсона).Советую любителям военной драмы.КРУТО! ОЧЕНЬ КРУТО! за качество низкий поклон человеку с золотыми руками! Привет
    06-Mar-2017 20:15 (after 4 days)
  7. Longevity:
    4 years 5 months
    Posts:
    2
    Gender:
    Unknown
    Kryl, дубляж будет
    07-Mar-2017 18:08 (after 21 hour)
  8. Longevity:
    6 years 4 months
    Posts:
    2414
    Gender:
    Male
    7538Kryl, дубляж будет
    нет , я по сто раз файлы не перепаковываю ....
    07-Mar-2017 18:21 (after 12 minutes)
  9. Longevity:
    4 years 4 months
    Posts:
    110
    Gender:
    Male
    [img][/img]
    7539
    7538Kryl, дубляж будет
    нет , я по сто раз файлы не перепаковываю ....
    Я уже добавил дубляж с iTunes, перепаковал. Кому надо, готов поделиться, только как тут организовать раздачу, х.з., пишет "только модераторы могут начинать темы в этом форуме".
    08-Mar-2017 10:47 (after 16 hours)
  10. Longevity:
    3 years 11 months
    Posts:
    1
    Gender:
    Unknown
    Встаньте на раздачу плз
    30-Mar-2017 18:03 (after 22 days)
  11. Longevity:
    4 years 2 months
    Posts:
    45
    Gender:
    Male
    Пожалуйста выложите 720, умоляю
    06-Aug-2017 19:38 (after 4 months 7 days)
  12. Longevity:
    3 years 6 months
    Posts:
    3
    Gender:
    Unknown
    мдааа, ни 730 ни дубляжа, печально, а ведь все еще в инете нету 60 фпс.
    30-Aug-2017 06:31 (after 23 days)
  13. Longevity:
    6 years 4 months
    Posts:
    2414
    Gender:
    Male
    8387мдааа, ни 730 ни дубляжа, печально, а ведь все еще в инете нету 60 фпс.
    не вижу проблем ..
    https://60-fps.org/zakaz.php
    30-Aug-2017 13:01 (after 6 hours)
  14. Longevity:
    3 years 6 months
    Posts:
    3
    Gender:
    Unknown
    хээ, 250рублей для меня удмурта это много, у нас зп в среднем 9тыщ
    30-Aug-2017 14:09 (after 1 hour 8 minutes)
  15. Longevity:
    4 years 6 months
    Posts:
    1576
    Gender:
    Male
    kokaka, а сколько ты на сигареты тратишь ?
    30-Aug-2017 15:27 (after 1 hour 18 minutes)


You cannot post new topics in this forum
You cannot reply to topics in this forum
You cannot edit your posts in this forum
You cannot delete your posts in this forum
You cannot vote in polls in this forum
You cannot attach files in this forum
You cannot download files in this forum