«Лучшие друзья. Отличные полицейские. Преступность обречена» - Информация о фильме
Название: Плохие парни
Оригинальное название: Bad Boys
Год выхода: 1995
Жанр: Боевик, триллер, драма, комедия, криминал
Режиссер: Ховард Этертон
Сценарий: Майкл Бэрри, Джим Малхолланд, Даг Ричардсон
Продюсер: Джерри Брукхаймер, Дон Симпсон, Лукас Фостер
В ролях: Мартин Лоуренс, Уилл Смит, Теа Леони, Чеки Карио, Тереза Рэндл, Мардж Хелгенбергер, Нестор Серрано, Хулио Оскар Мекозо, Саверио Гуэрра
--О фильме:
Они — полная противоположность друг друга. Один из них — примерный семьянин и не имеет состояния, другой богат и пользуется всеми благами холостяцкой жизни. Помимо дружбы их объединяет работа в полиции.
Их новое задание — поймать жестокого преступника, укравшего наркотики с секретного склада, а также спасти девушку, которая случайно оказалась на его пути. Но для этого друзьям придется поменяться местами…
- - Страна: США
Продолжительность: 01:58:51
-- Файл
Кодек: MPEG4/ISO/AVC H.264
Формат: MKV
Качество: BDRip 1080
Видео: 1920x1040 | 59.940 fps | 13.2 Мбит/сек
Аудио 1: AC3 | 5.1 | 48 kHz | 384 kbps | 16 bit | Дубляж |
Аудио 2: DTS | 5.1 | 48 kHz | 755 kbps | 16 bit | А.Гаврилов |
Аудио 3: AC3 | 2.0 | 48 kHz | 256 kbps | 16 bit | Профессиональный многоголосый |
Аудио 4: AC3 | 2.0 | 48 kHz | 192 kbps | 16 bit | Ю.Живов |
Субтитры:Russian (UTF-8)

MedifInfo

Video
ID : 1
Format : AVC
Format/Info : Advanced Video Codec
Format profile : High@L4.1
Format settings, CABAC : Yes
Format settings, ReFrames : 4 frames
Format settings, GOP : M=4, N=32
Muxing mode : Container profile=Unknown@4.1
Codec ID : V_MPEG4/ISO/AVC
Duration : 1h 58mn
Bit rate : 13.2 Mbps
Width : 1 920 pixels
Height : 1 040 pixels
Display aspect ratio : 16:9
Frame rate : 59.940 fps
Color space : YUV
Chroma subsampling : 4:2:0
Bit depth : 8 bits
Scan type : Progressive
Bits/(Pixel*Frame) : 0.111
Stream size : 11.0 GiB (88%)
Writing library : x264 core 130 r2273 b3065e6
Encoding settings : cabac=1 / ref=4 / deblock=1:0:0 / analyse=0x3:0 / me=umh / subme=9 / psy=1 / psy_rd=1.00:0.10 / mixed_ref=1 / me_range=42 / chroma_me=0 / trellis=2 / 8x8dct=1 / cqm=0 / deadzone=21,11 / fast_pskip=0 / chroma_qp_offset=-3 / threads=12 / lookahead_threads=1 / sliced_threads=0 / nr=0 / decimate=0 / interlaced=0 / bluray_compat=0 / constrained_intra=0 / bframes=5 / b_pyramid=2 / b_adapt=2 / b_bias=0 / direct=1 / weightb=1 / open_gop=0 / weightp=2 / keyint=250 / keyint_min=25 / scenecut=40 / intra_refresh=0 / rc=crf / mbtree=0 / crf=18.0 / qcomp=0.60 / qpmin=0 / qpmax=69 / qpstep=4 / ip_ratio=1.40 / pb_ratio=1.30 / aq=1:0.90
Audio #1
ID : 2
Format : AC-3
Format/Info : Audio Coding 3
Mode extension : CM (complete main)
Codec ID : A_AC3
Duration : 1h 58mn
Bit rate mode : Constant
Bit rate : 384 Kbps
Channel(s) : 6 channels
Channel positions : Front: L C R, Side: L R, LFE
Sampling rate : 48.0 KHz
Bit depth : 16 bits
Stream size : 326 MiB (3%)
Title : Дубляж
Language : Russian
Audio #2
ID : 3
Format : DTS
Format/Info : Digital Theater Systems
Codec ID : A_DTS
Duration : 1h 58mn
Bit rate mode : Constant
Bit rate : 755 Kbps
Channel(s) : 6 channels
Channel positions : Front: L C R, Side: L R, LFE
Sampling rate : 48.0 KHz
Bit depth : 24 bits
Stream size : 641 MiB (5%)
Title : А.Гаврилов
Language : Russian
Audio #3
ID : 4
Format : AC-3
Format/Info : Audio Coding 3
Mode extension : CM (complete main)
Codec ID : A_AC3
Duration : 1h 58mn
Bit rate mode : Constant
Bit rate : 256 Kbps
Channel(s) : 2 channels
Channel positions : Front: L R
Sampling rate : 48.0 KHz
Bit depth : 16 bits
Stream size : 218 MiB (2%)
Title : Профессиональный многоголосый
Language : Russian
Audio #4
ID : 5
Format : AC-3
Format/Info : Audio Coding 3
Mode extension : CM (complete main)
Codec ID : A_AC3
Duration : 1h 58mn
Bit rate mode : Constant
Bit rate : 192 Kbps
Channel(s) : 2 channels
Channel positions : Front: L R
Sampling rate : 48.0 KHz
Bit depth : 16 bits
Stream size : 163 MiB (1%)
Title : Ю.Живов
Language : Russian
Text
ID : 6
Format : UTF-8
Codec ID : S_TEXT/UTF8
Codec ID/Info : UTF-8 Plain Text
Title : Russ Full
Language : Russian
Автор рипа: ressident
 
Показать сообщения:    

Текущее время: 19-Окт 19:10

Часовой пояс: UTC + 3


Вы не можете начинать темы
Вы не можете отвечать на сообщения
Вы не можете редактировать свои сообщения
Вы не можете удалять свои сообщения
Вы не можете голосовать в опросах
Вы не можете прикреплять файлы к сообщениям
Вы не можете скачивать файлы