[Цитировать]
Lucifer

Пленницы / Prisoners
Год выпуска: 2013 г.
Жанр: Триллер, Драма, Криминал.
Страна: США.
Режиссер: Дени Вильнёв.
Продолжительность: 02:33:12
Перевод: Профессиональный (дублированный)
В ролях: Хью Джекман, Джейк Джилленхол, Виола Дэвис, Мария Белло, Терренс Ховард, Мелисса Лео, Пол Дано, Лен Кариу, Давид Дастмалчян, Брэд Джеймс, Энтони Рейнольдс, Роберт С. Тревилер, Сандра Эллис Лэфферти, Виктория Стейли, Брайан Дэй, Алиса Харрис, Роберт Мелло, Джефф Поуп, Родерик Гойнс, Памела Смит
Бюджет: 46,000,000 $
Кассовые сборы в мире: 50,210,000$
Описание: Похищена шестилетняя девочка и ее подруга. Отец одной из них отчаивается найти дочку с помощью полиции и вершит правосудие сам: берет в заложники человека, подозреваемого в похищении девочек. Теперь именно его ищет вся местная полиция и детектив Локи.


Формат видео: MKV
Качество видео: BDRip 1080p | 60fps
Видео кодек: H.264
Аудио кодек: AC3
Видео: 1920x1080 | 59.940 fps | 8.5 Мбит/сек
Аудио: AC3 | 5.1 | 48 kHz | 384 kbps | 8 bit | Дубляж |

Отчёт MediaInfo

Общее
Уникальный идентификатор : 170485700970707606179071222996571584939 (0x80425A0651E238F99EEFA516DF28F9AB)
Полное имя : D:\Видео\HD\60\Пленницы 2013.mkv
Формат : Matroska
Версия формата : Version 2
Размер файла : 9,50 Гбайт
Продолжительность : 2 ч. 33 м.
Общий поток : 8876 Кбит/сек
Название фильма : -Talian-
Дата кодирования : UTC 2015-06-13 17:44:59
Программа кодирования : mkvmerge v5.8.0 ('No Sleep / Pillow') built on Sep 2 2012 15:37:04
Библиотека кодирования : libebml v1.2.3 + libmatroska v1.3.0
Attachements : POSTER.png
Видео
Идентификатор : 1
Формат : AVC
Формат/Информация : Advanced Video Codec
Профиль формата : High@L4.2
Параметр CABAC формата : Да
Параметр ReFrames формата : 4 кадра
Режим смешивания : Header stripping
Идентификатор кодека : V_MPEG4/ISO/AVC
Продолжительность : 2 ч. 33 м.
Битрейт : 8500 Кбит/сек
Ширина : 1918 пикселей
Высота : 1080 пикселей
Соотношение сторон : 16:9
Режим частоты кадров : Постоянный
Частота кадров : 60,000 кадров/сек
Частота кадров в оригинале : 59,940 кадров/сек
Цветовое пространство : YUV
Субдискретизация насыщенности : 4:2:0
Битовая глубина : 8 бит
Тип развёртки : Прогрессивная
Бит/(Пиксели*Кадры) : 0.068
Размер потока : 8,90 Гбайт (94%)
Библиотека кодирования : x264 core 146 r2538 121396c
Настройки программы : cabac=1 / ref=3 / deblock=1:-2:-2 / analyse=0x3:0x113 / me=hex / subme=7 / psy=1 / psy_rd=1.00:0.25 / mixed_ref=1 / me_range=16 / chroma_me=1 / trellis=1 / 8x8dct=1 / cqm=0 / deadzone=6,6 / fast_pskip=1 / chroma_qp_offset=-4 / threads=6 / lookahead_threads=1 / sliced_threads=0 / nr=0 / decimate=0 / interlaced=0 / bluray_compat=0 / constrained_intra=0 / bframes=3 / b_pyramid=2 / b_adapt=1 / b_bias=0 / direct=1 / weightb=1 / open_gop=0 / weightp=2 / keyint=599 / keyint_min=59 / scenecut=40 / intra_refresh=0 / rc_lookahead=40 / rc=2pass / mbtree=1 / bitrate=8500 / ratetol=1.0 / qcomp=0.80 / qpmin=0 / qpmax=69 / qpstep=4 / cplxblur=20.0 / qblur=0.5 / ip_ratio=1.10 / aq=1:0.50
Default : Да
Forced : Нет
Аудио
Идентификатор : 2
Формат : AC-3
Формат/Информация : Audio Coding 3
Расширение режима : CM (complete main)
Параметр Endianness формата : Big
Режим смешивания : Header stripping
Идентификатор кодека : A_AC3
Продолжительность : 2 ч. 33 м.
Вид битрейта : Постоянный
Битрейт : 384 Кбит/сек
Каналы : 6 каналов
Расположение каналов : Front: L C R, Side: L R, LFE
Частота : 48,0 КГц
Метод сжатия : С потерями
Размер потока : 421 Мбайт (4%)
Язык : Russian
Default : Да
Forced : Нет
Меню
00:00:00.000 : en:
00:08:50.780 : en:
00:19:52.149 : en:
00:30:18.942 : en:
00:40:23.838 : en:
00:49:36.974 : en:
00:59:27.897 : en:
01:08:24.725 : en:
01:17:29.102 : en:
01:29:17.393 : en:
01:41:34.797 : en:
01:51:36.815 : en:
01:59:39.255 : en:
02:11:46.690 : en:
02:19:50.840 : en:
02:25:54.287 : en:

Скриншоты

 
Показать сообщения:    

Текущее время: 08-Дек 19:04

Часовой пояс: UTC + 3


Вы не можете начинать темы
Вы не можете отвечать на сообщения
Вы не можете редактировать свои сообщения
Вы не можете удалять свои сообщения
Вы не можете голосовать в опросах
Вы не можете прикреплять файлы к сообщениям
Вы не можете скачивать файлы